Welcome Guest ( Log In | Register )

> Releases Upload / Добавление релизов

Добавить релиз тут / Click here to add release
Рекомендованные обменники / Recommended file shares

 
Reply to this topicStart new topic
> Totalitarian - Kulturkampf/Los Von Rom [ep] (2020), Black/Death Metal
post Nov 21 2020, 18:46:07
Post #1

Правь статус, ####!616
**************
Group: Металариец
Posts: 5,416
Releases: 3948
From: 55°35’N 38°08’E
On Forums: 12 years 4 months
Thanks: 74015 time(s)
Unknown


(IMG:https://metalarea.org/images/audiocovers/2020_Nov/acov_tid344221_thumb.jpg)

*Artist: Totalitarian
*Album: Kulturkampf/Los Von Rom [ep]
*Year: 2020
*Genre: Black/Death Metal
*Country: Italy (IMG:https://metalarea.org/forum/style_images/flags/Italy.png)
*Format: mp3@CBR320kbps
*Size: 59MB

Tracklist:
1.Kulturkampf 11:19
2.Los Von Rom 14:22
******************************
Total playing time: 25:41




Technical info
(IMG:https://metalarea.org/images/spectrogram/2020_Nov/02378a9796e1b571df32b465656bda2d.png)
Input File: 01 Kulturkampf.mp3
Channels : 2
Sample Rate : 44100
Precision : 16-bit
Duration : 00:11:19.90 = 29983722 samples = 50992.7 CDDA sectors
File Size : 27.3M
Bit Rate : 322k
Sample Encoding: MPEG audio (layer I, II or III)
Comments :
Title=Kulturkampf
Artist=Totalitarian
Album=Kulturkampf / Los Von Rom
Tracknumber=1
Year=2020
Genre=Black Metal



Register


Go to the top of the page
  Insert nick Quick quote
+Quote Post

Reply to this topicStart new topic
2 User(s) are reading this topic (2 Guests and 0 Anonymous Users)
0 Members:

 



- Lo-Fi Version Support form
Copyrights and abuse reports form
Time is now: 1st December 2020 - 19:26:20