Welcome Guest ( Log In | Register )

> Releases Upload / Добавление релизов

Добавить релиз тут / Click here to add release
Рекомендованные обменники / Recommended file shares

> Neuropolis - Golem [ep] (2020), Doom/Death Metal
post Nov 21 2020, 19:04:03
Post #1

Правь статус, ####!111
**************
Group: Металариец
Posts: 23,993
Releases: 16861
From: Г.Харьков
On Forums: 8 years 6 months
Thanks: 321285 time(s)
Unknown


(IMG:http://metalarea.org/images/audiocovers/2020_Nov/acov_tid344222_thumb.jpg)

*Artist: Neuropolis
*Album: Golem [ep]
*Year: 2020
*Genre: Doom/Death Metal
*Country: Russian Federation (IMG:http://metalarea.org/forum/style_images/flags/Russian%20Federation.png)
*Format: mp3@CBR320kbps
*Size: 67MB

Tracklist:
1. Devastation Опустошение 07:39
2. Golem Голем 07:09
3. Reanimation Реанимация 08:02
4. Null 06:48
******************************
Total playing time: 29:38




Extended info
Sergey Berezhansky Bass
Alexey Antonov Drums
Dmitriy Kim Guitars
Miroslava Antonova Keyboards, Vocals
Vladimir Alexeev Vocals
Vergil Alighieri Guitars (2018-present)


Technical info
(IMG:http://metalarea.org/images/spectrogram/2020_Nov/f57e412eeb88fb1755b96a1c5d511e3d.png)
Input File: 01 - Опустошение.mp3
Channels : 2
Sample Rate : 44100
Precision : 16-bit
Duration : 00:07:39.40 = 20259672 samples = 34455.2 CDDA sectors
File Size : 18.4M
Bit Rate : 320k
Sample Encoding: MPEG audio (layer I, II or III)
Comments :
Title=Îïóñòîøåíèå
Artist=Neuropolis
Album=Golem
Tracknumber=1
Year=2020
Genre=Death Metal



Register


Go to the top of the page
  Insert nick Quick quote
+Quote Post
 
Start new topic
Replies (1 - 1)
post Nov 22 2020, 16:18:01
Post #2

Три Литра
***
Group: Завсегдатай
Posts: 201
Releases: 0
On Forums: 2 years 9 months
Thanks: 81 time(s)
Belarus


Совсем слабенько.
Go to the top of the page
  Insert nick Quick quote
+Quote Post

Reply to this topicStart new topic
2 User(s) are reading this topic (2 Guests and 0 Anonymous Users)
0 Members:

 



- Lo-Fi Version Support form
Copyrights and abuse reports form
Time is now: 29th November 2020 - 20:17:18