Welcome Guest ( Log In | Register )

> Releases Upload / Добавление релизов

Добавить релиз тут / Click here to add release
Рекомендованные обменники / Recommended file shares

 
Reply to this topicStart new topic
> Ardente - Derrière Les Remparts [ep] (2020), Black Metal
post Nov 21 2020, 19:10:37
Post #1

Правь статус, ####!616
**************
Group: Металариец
Posts: 5,414
Releases: 3943
From: 55°35’N 38°08’E
On Forums: 12 years 4 months
Thanks: 73920 time(s)
Unknown


(IMG:https://metalarea.org/images/audiocovers/2020_Nov/acov_tid344223_thumb.jpg)

*Artist: Ardente
*Album: Derrière Les Remparts [ep]
*Year: 2020
*Genre: Black Metal
*Country: France (IMG:https://metalarea.org/forum/style_images/flags/France.png)
*Format: mp3@CBR320kbps
*Size: 45MB

Tracklist:
1.Sous les Flèches Déferlantes 09:22
2.Interlude 03:06
3.Derrière les Remparts 06:59
******************************
Total playing time: 19:27



Extended info
Instrumental


Technical info
(IMG:https://metalarea.org/images/spectrogram/2020_Nov/7656b13a47bfba10deb8f2f7968862f2.png)
Input File: 01 Sous les Flèches Déferlantes.mp3
Channels : 2
Sample Rate : 44100
Precision : 16-bit
Duration : 00:09:22.42 = 24802898 samples = 42181.8 CDDA sectors
File Size : 22.6M
Bit Rate : 321k
Sample Encoding: MPEG audio (layer I, II or III)
Comments :
Title=Sous les Flèches Déferlantes
Artist=Ardente
Album=Derrière les Remparts (EP)
Tracknumber=1
Year=2020
Genre=Black Metal



Register


Go to the top of the page
  Insert nick Quick quote
+Quote Post

Reply to this topicStart new topic
2 User(s) are reading this topic (2 Guests and 0 Anonymous Users)
0 Members:

 



- Lo-Fi Version Support form
Copyrights and abuse reports form
Time is now: 29th November 2020 - 21:12:37