Welcome Guest ( Log In | Register )

> Releases Upload / Добавление релизов

Добавить релиз тут / Click here to add release
Рекомендованные обменники / Recommended file shares

> Porkavida - Todo Por Hacer (2000), Groove Metal
post Nov 21 2020, 20:24:28
Post #1

Groove/Industrial/Aggressive Nu Metal
**************
Group: Металариец
Posts: 2,613
Releases: 61
From: Technical Death из 90-х
On Forums: 10 years 4 months
Thanks: 5709 time(s)
Unknown


(IMG:https://metalarea.org/images/audiocovers/2020_Nov/acov_tid344224_thumb.jpg)

*Artist: Porkavida
*Album: Todo Por Hacer
*Year: 2000
*Genre: Groove Metal
*Country: Spain (IMG:https://metalarea.org/forum/style_images/flags/Spain.png)
*Format: mp3@CBR320kbps
*Size: 117MB

Tracklist:
01. Obsesión 04:28
02. Caer al vacío 04:33
03. Cuestión de fe 03:27
04. Jugar a humano 05:16
05. Necesidad 03:27
06. El juego parecía fácil 04:01
07. Todo por hacer 04:46
08. Ira 04:25
09. Nada que objetar 04:52
10. Atrapados 05:15
11. Una respuesta más 06:24
******************************
Total playing time: 50:54

Extended info
Спектры, конечно, дерьмовые, но, полагаю, это единственная версия альбома в сети...


Technical info
(IMG:https://metalarea.org/images/spectrogram/2020_Nov/053abdb0477245e2273a17324cc0e5aa.png)
Input File: 01 - obsesion.mp3
Channels : 2
Sample Rate : 44100
Precision : 16-bit
Duration : 00:04:28.04 = 11820564 samples = 20103 CDDA sectors
File Size : 10.8M
Bit Rate : 322k
Sample Encoding: MPEG audio (layer I, II or III)
Comments :
Title=Obsesion
Artist=Porkavida
Album=Todo Por Hacer
Tracknumber=1
Year=2000
Genre=Groove Metal



Register


Go to the top of the page
  Insert nick Quick quote
+Quote Post
 
Start new topic
Replies (1 - 1)
post Nov 22 2020, 15:03:06
Post #2

Два Литра
**
Group: Завсегдатай
Posts: 167
Releases: 0
From: минск сити
On Forums: 11 years 5 months
Thanks: 48 time(s)
Belarus


Pantera на испанском.
Go to the top of the page
  Insert nick Quick quote
+Quote Post

Reply to this topicStart new topic
2 User(s) are reading this topic (2 Guests and 0 Anonymous Users)
0 Members:

 



- Lo-Fi Version Support form
Copyrights and abuse reports form
Time is now: 1st December 2020 - 18:44:03