Welcome Guest ( Log In | Register )

> Releases Upload / Добавление релизов

Добавить релиз тут / Click here to add release
Рекомендованные обменники / Recommended file shares

> The Prophet - Strongholds Of Nature (2020), Melodic Death Metal (D7)
post Nov 21 2020, 20:32:45
Post #1

Правь статус, ####!111
**************
Group: Металариец
Posts: 23,994
Releases: 16861
From: Г.Харьков
On Forums: 8 years 6 months
Thanks: 321288 time(s)
Unknown


(IMG:http://metalarea.org/images/audiocovers/2020_Nov/acov_tid344225_thumb.jpg)

*Artist: The Prophet
*Album: Strongholds Of Nature
*Year: 2020
*Genre: Melodic Death Metal
*Country: Russian Federation (IMG:http://metalarea.org/forum/style_images/flags/Russian%20Federation.png)
*Format: mp3@CBR320kbps
*Size: 87MB

Tracklist:
1. Black Mask Of The Night
2. Hungry For Your Soul
3. Dare To Enter Hell
4. Mare Somniorum
5. Admitting Fears
6. The Visitors
7. Die In A Dream
8. Grand Deliriozo pt.II (Soma)
9. Strongholds Of Nature
10. Release The Unnamed
11. Vastness Of Wastelands
12. Come, Lady Death
******************************
Total playing time: 38:20

Preview 1


Extended info
Doctor Guitars, Vocals (2010-present)
Raziel Drums (2014-present)
See also: Hor Zapor, Cemeterial
Theodor Bass, Vocals (2018-present)
See also: Blood Trail, KillHammer, Legio Sergia, Voices from the Past, Cemeterial
Nikolay Razgulyaev Guitars (2019-present)


Technical info
(IMG:http://metalarea.org/images/spectrogram/2020_Nov/656941dc305fbe5f9f3c405bf125aed7.png)
Input File: 07 - Die In A Dream.mp3
Channels : 2
Sample Rate : 44100
Precision : 16-bit
Duration : 00:05:08.57 = 13608025 samples = 23142.9 CDDA sectors
File Size : 12.3M
Bit Rate : 320k
Sample Encoding: MPEG audio (layer I, II or III)
Comments :
Title=Die In A Dream
Artist=The Prophet
Album=Strongholds Of Nature
Tracknumber=7
Year=2020
Genre=Death Metal



Register


Go to the top of the page
  Insert nick Quick quote
+Quote Post
 
Start new topic
Replies (1 - 2)
post Nov 22 2020, 16:22:49
Post #2

hearer & reader
**************
Group: Металариец
Posts: 9,225
Releases: 164
From: Moscow
On Forums: 13 years 2 months
Thanks: 9859 time(s)
Russian Federation


https://music.yandex.ru/album/12882880/track/73928735
придётся послушать..
Go to the top of the page
  Insert nick Quick quote
+Quote Post
post Nov 26 2020, 20:56:48
Post #3

MDM-Thrash Metal
**************
Group: Металариец
Posts: 10,002
Releases: 1103
From: Одесса
On Forums: 13 years 3 months
Thanks: 27314 time(s)
Ukraine




Чистый вокал + слишком уж много меланхоличных проиграшей и замедлений...
Go to the top of the page
  Insert nick Quick quote
+Quote Post

Reply to this topicStart new topic
2 User(s) are reading this topic (2 Guests and 0 Anonymous Users)
0 Members:

 



- Lo-Fi Version Support form
Copyrights and abuse reports form
Time is now: 29th November 2020 - 21:23:45