Welcome Guest ( Log In | Register )

> Releases Upload / Добавление релизов

Добавить релиз тут / Click here to add release
Рекомендованные обменники / Recommended file shares

 
Reply to this topicStart new topic
> Pyreficativm - Erotognosticism (2020), Black Metal
post Nov 21 2020, 22:34:39
Post #1

Правь статус, ####!616
**************
Group: Металариец
Posts: 5,416
Releases: 3948
From: 55°35’N 38°08’E
On Forums: 12 years 4 months
Thanks: 74013 time(s)
Unknown


(IMG:https://metalarea.org/images/audiocovers/2020_Nov/acov_tid344226_thumb.jpg)

*Artist: Pyreficativm
*Album: Erotognosticism
*Year: 2020
*Genre: Black Metal
*Country: Chile (IMG:https://metalarea.org/forum/style_images/flags/Chile.png)
*Format: mp3@CBR320kbps
*Size: 132MB

Tracklist:
1.Phallus Khedesh 04:10
2.Tetramorphosophia 08:14
3.Hypostasis Kênomah 06:53
4.Erset Ahnnamutti Kâshaj 10:16
5.Altare de Algolagnia 04:34
6.Obombrastasis Dinoia 08:34
7.Ishet ha Azaazyl 15:05
******************************
Total playing time: 57:46




Technical info
(IMG:https://metalarea.org/images/spectrogram/2020_Nov/a97ef671cdd3fa27ba395f928ac5dfee.png)
Input File: 02 Tetramorphosophia.mp3
Channels : 2
Sample Rate : 44100
Precision : 16-bit
Duration : 00:08:14.97 = 21828265 samples = 37122.9 CDDA sectors
File Size : 19.9M
Bit Rate : 321k
Sample Encoding: MPEG audio (layer I, II or III)
Comments :
Title=Tetramorphosophia
Artist=Pyreficativm
Album=Erotognosticism
Tracknumber=2
Year=2020
Genre=Black Metal



Register


Go to the top of the page
  Insert nick Quick quote
+Quote Post

Reply to this topicStart new topic
2 User(s) are reading this topic (2 Guests and 0 Anonymous Users)
0 Members:

 



- Lo-Fi Version Support form
Copyrights and abuse reports form
Time is now: 1st December 2020 - 18:55:48