Welcome Guest ( Log In | Register )

> Releases Upload / Добавление релизов

Добавить релиз тут / Click here to add release
Рекомендованные обменники / Recommended file shares

> Ildrasun - Kingdom On The Shore (2020), Post-Black Metal
post Nov 21 2020, 23:32:49
Post #1

Время Мары
**************
Group: Металариец
Posts: 3,186
Releases: 453
From: Харьков
On Forums: 11 years 5 months
Thanks: 9246 time(s)
Ukraine


(IMG:http://metalarea.org/images/audiocovers/2020_Nov/acov_tid344227_thumb.jpg)

*Artist: Ildrasun
*Album: Kingdom On The Shore
*Year: 2020
*Genre: Post-Black Metal
*Country: United States (IMG:http://metalarea.org/forum/style_images/flags/United%20States.png)
*Format: mp3@CBR320kbps
*Size: 96MB

Tracklist:
1. Kingdom on the Shore
2. Impending Storm
3. Out to Sea
4. Adrift
5. Ideals
6. Summit of Lies
7. Descent into the Wood
8. Death and Rebirth
9. The Holy Temple
******************************
Total playing time: 40:55

Technical info
(IMG:http://metalarea.org/images/spectrogram/2020_Nov/f5d09303617965088e51c72ac22cb081.png)
Input File: 01 - Kingdom on the Shore.mp3
Channels : 2
Sample Rate : 44100
Precision : 16-bit
Duration : 00:05:24.07 = 14291311 samples = 24305 CDDA sectors
File Size : 13.2M
Bit Rate : 326k
Sample Encoding: MPEG audio (layer I, II or III)
Comments :
Title=Kingdom on the Shore
Artist=Ildrasun
Album=Kingdom on the Shore
Tracknumber=1
Year=2020



Register


Go to the top of the page
  Insert nick Quick quote
+Quote Post
 
Start new topic
Replies (1 - 1)
post Nov 22 2020, 14:04:32
Post #2

MDM-Thrash Metal
**************
Group: Металариец
Posts: 10,002
Releases: 1103
From: Одесса
On Forums: 13 years 3 months
Thanks: 27325 time(s)
Ukraine


Go to the top of the page
  Insert nick Quick quote
+Quote Post

Reply to this topicStart new topic
1 User(s) are reading this topic (1 Guests and 0 Anonymous Users)
0 Members:

 



- Lo-Fi Version Support form
Copyrights and abuse reports form
Time is now: 1st December 2020 - 19:01:50