Welcome Guest ( Log In | Register )

> Releases Upload / Добавление релизов

Добавить релиз тут / Click here to add release
Рекомендованные обменники / Recommended file shares

> Ellefson - No Cover (2020), Heavy Metal
post Nov 22 2020, 09:29:41
Post #1

Правь статус, ####!111
**************
Group: Металариец
Posts: 2,457
Releases: 222
On Forums: 14 years 2 days
Thanks: 5917 time(s)
Unknown


(IMG:http://metalarea.org/images/audiocovers/2020_Nov/acov_tid344229_thumb.jpg)

*Artist: Ellefson
*Album: No Cover
*Year: 2020
*Genre: Heavy Metal
*Country: United States (IMG:http://metalarea.org/forum/style_images/flags/United%20States.png)
*Format: mp3@CBR320kbps
*Size: 177MB

Tracklist:
01. Ellefson, Jason McMaster, Gus G, Andy James, Dave McClain - Freewheel Burning (Judas Priest cover) 04:21
02. Ellefson, Eddie Ojeda, Dave McClain - Tear It Loose (Twisted Sister cover) 03:41
03. Ellefson, Doro, Greg Handevidt, Chuck Behler - Love Me Like a Reptile (Motörhead cover) 03:19
04. Ellefson, Charlie Benante, Bumblefoot - Holiday in Cambodia (Dead Kennedys cover) 03:43
05. Ellefson, Paolo Caridi - Rebel Yell (Billy Idol cover) 04:49
06. Ellefson, Frank Hannon, Jacob Bunton, Dave McClain - Wasted (Def Leppard cover) 03:47
07. Ellefson, Jason McMaster, Dave Lombardo, Bumblefoot - Riff Raff (AC/DC cover) 05:15
08. Ellefson, Andrew Freeman, Russ Parrish, Jimmy DeGrasso - Nailed to the Gun (Fight cover) 03:44
09. Ellefson, John Aquilino, Paolo Caridi, Bumblefoot - Not Fragile (Bachman-Turner Overdrive cover) 04:07
10. Ellefson, Al Jourgensen, Charlie Benante - Auf Wiedersehen (Cheap Trick cover) 03:41
11. Ellefson, Dirk Verbeuren, Dave Alvin, Bumblefoot - Love Machine (W.A.S.P. cover) 03:44
12. Ellefson, Brandon Yeagley, Tyson Leslie, Chuck Behler - Love Hurts (Nazareth cover) 03:57
13. Ellefson, Jason McMaster, Dave Sharpe, Opus of the Dead by Wednesday - Eat the Rich (Krokus cover) 03:50
14. Ellefson, Doro, Charlie Benante, Bumblefoot - Sheer Heart Attack (Queen cover) 03:22
15. Ellefson, Andrew Freeman, Bumblefoot, Jimmy DeGrasso - Over the Mountain (Ozzy Osbourne cover) 04:34
16. Ellefson, Todd Kerns, Bumblefoot, Shani Kimelman - Sweet F.A. (Sweet cover) 06:15
17. Ellefson, Bumblefoot, Tyson Leslie - Beth (Kiss cover) 02:47
18. Ellefson, Troy Lucketta, Mark Slaughter - Say What You Will (Fastway cover) 03:17
19. Ellefson, Chip Z'nuff, Drew Frontier, Mike Heller - Downed 04:53
******************************
Total playing time: 1:17:06

Technical info
(IMG:http://metalarea.org/images/spectrogram/2020_Nov/1d8de2d11f6cdf05c30804b1f8686007.png)
Input File: 17 - Beth.mp3
Channels : 2
Sample Rate : 44100
Precision : 16-bit
Duration : 00:02:47.09 = 7368713 samples = 12531.8 CDDA sectors
File Size : 6.71M
Bit Rate : 321k
Sample Encoding: MPEG audio (layer I, II or III)
Comments :
Title=Beth (Kiss cover)
Artist=Ellefson, Bumblefoot, Tyson Leslie
Album=No Cover
Tracknumber=17
Year=2020
Genre=Hard & Heavy



Register


Go to the top of the page
  Insert nick Quick quote
+Quote Post
 
Start new topic
Replies (1 - 6)
post Nov 22 2020, 16:07:27
Post #2

hearer & reader
**************
Group: Металариец
Posts: 9,225
Releases: 164
From: Moscow
On Forums: 13 years 2 months
Thanks: 9858 time(s)
Russian Federation


Превью - это баловство


https://www.youtube.com/playlist?list=PLBzB...OQ9-saGnVqEZ7S8
https://music.yandex.ru/album/12867772
Go to the top of the page
  Insert nick Quick quote
+Quote Post
post Nov 22 2020, 20:32:36
Post #3

Правь статус, ####!111
**************
Group: Металариец
Posts: 2,457
Releases: 222
On Forums: 14 years 2 days
Thanks: 5917 time(s)
Unknown



Go to the top of the page
  Insert nick Quick quote
+Quote Post
post Nov 22 2020, 20:47:30
Post #4

Маньяк
**********
Group: Металариец
Posts: 1,353
Releases: 0
From: Russian Federation - St.Petersburg
On Forums: 11 years 8 months
Thanks: 346 time(s)
Russian Federation


Молодец басист! Охрененные каверы с хардой! (IMG:style_emoticons/default/banana.gif)
Go to the top of the page
  Insert nick Quick quote
+Quote Post
post Nov 22 2020, 21:00:15
Post #5

Четыре Литра
****
Group: Металариец
Posts: 337
Releases: 2
On Forums: 2 years 6 months
Thanks: 252 time(s)
Russian Federation


Какая-то чушь, если честно. Вокал портит просто всё, что можно.
Go to the top of the page
  Insert nick Quick quote
+Quote Post
post Nov 23 2020, 04:32:32
Post #6

Group: Подсевший
Posts: 15
Releases: 0
From: USA
On Forums: 1 year 8 months
Thanks: 0 time(s)
United States


This album is a lot of fun good stuff great covers
Go to the top of the page
  Insert nick Quick quote
+Quote Post
post Nov 25 2020, 15:10:10
Post #7

Три Литра
***
Group: Завсегдатай
Posts: 216
Releases: 0
From: Kiev
On Forums: 11 years 10 months
Thanks: 48 time(s)
Ukraine


ЦИТАТА
Ellefson, Brandon Yeagley, Tyson Leslie, Chuck Behler - Love Hurts (Nazareth cover)

Чё ??777 (IMG:style_emoticons/default/look.gif)
Go to the top of the page
  Insert nick Quick quote
+Quote Post

Reply to this topicStart new topic
2 User(s) are reading this topic (2 Guests and 0 Anonymous Users)
0 Members:

 



- Lo-Fi Version Support form
Copyrights and abuse reports form
Time is now: 29th November 2020 - 20:01:05