Welcome Guest ( Log In | Register )

> Releases Upload / Добавление релизов

Добавить релиз тут / Click here to add release
Рекомендованные обменники / Recommended file shares

> Unbegotten - Manifestion (2019), Black Metal
post Nov 22 2020, 10:01:24
Post #1

the faceless one
Group Icon
Group: S-moderation team
Posts: 9,368
Releases: 1932
On Forums: 12 years 3 months
Thanks: 116562 time(s)
Russian Federation


(IMG:http://metalarea.org/images/audiocovers/2020_Nov/acov_tid344230_thumb.jpg)

*Artist: Unbegotten
*Album: Manifestion
*Year: 2019
*Genre: Black Metal
*Country: Spain (IMG:http://metalarea.org/forum/style_images/flags/Spain.png)
*Format: mp3@VBR267kbps
*Size: 80MB

Tracklist:
1. Unbegotten 06:54
2. Memory & Misery 08:05
3. Ruined Existence, Cursed Heritage 06:13
4. If I Fall 05:47
5. Gradients Of Infinity 05:58
6. Abysses Of Existence 06:00
7. Dormancy 02:02
******************************
Total playing time: 40:59

(IMG:http://metalarea.org/images/youtube.png)

Extended info
Altare Productions/Nebular Carcoma


Technical info
(IMG:http://metalarea.org/images/spectrogram/2020_Nov/26a672660a3626d3ebf499ba8f748efa.png)
Input File: 01 Unbegotten.mp3
Channels : 2
Sample Rate : 44100
Precision : 16-bit
Duration : 00:06:54.35 = 18273011 samples = 31076.5 CDDA sectors
File Size : 13.8M
Bit Rate : 266k
Sample Encoding: MPEG audio (layer I, II or III)
Comments :
Title=Unbegotten
Artist=Unbegotten
Album=Manifestion
Tracknumber=01/7
Year=2019
Genre=Black Metal



Register


Go to the top of the page
  Insert nick Quick quote
+Quote Post
 
Start new topic
Replies (1 - 1)
post Yesterday, 18:39:12
Post #2

Black is beautiful
***********
Group: Металариец
Posts: 1,820
Releases: 4
On Forums: 8 years 8 months
Thanks: 367 time(s)
Unknown


Microsoft Defender says File contains virus.
Go to the top of the page
  Insert nick Quick quote
+Quote Post

Reply to this topicStart new topic
2 User(s) are reading this topic (2 Guests and 0 Anonymous Users)
0 Members:

 



- Lo-Fi Version Support form
Copyrights and abuse reports form
Time is now: 29th November 2020 - 20:21:03