Welcome Guest ( Log In | Register )

> Releases Upload / Добавление релизов

Добавить релиз тут / Click here to add release
Рекомендованные обменники / Recommended file shares

> Ogof - Full Moon Black Shadow (2020), Raw Black Metal
post Nov 22 2020, 10:01:57
Post #1

the faceless one
Group Icon
Group: S-moderation team
Posts: 9,368
Releases: 1932
On Forums: 12 years 3 months
Thanks: 116575 time(s)
Russian Federation


(IMG:http://metalarea.org/images/audiocovers/2020_Nov/acov_tid344231_thumb.jpg)

*Artist: Ogof
*Album: Full Moon Black Shadow
*Year: 2020
*Genre: Raw Black Metal
*Country: United Kingdom (IMG:http://metalarea.org/forum/style_images/flags/United%20Kingdom.png)
*Format: mp3@CBR320kbps
*Size: 100MB

Tracklist:
1. The Spectre 01:38
2. Source Of All Ecclesiastical Evil 03:12
3. Bringer Of Sacred Offensive 05:15
4. Altar Of The Sacrifice Cavens 03:42
5. Darkness Provoked 05:36
6. Devil's Flock Devil's Rituals 00:32
7. Talismans Of Diobology 00:54
8. Manifestations And Torment 05:28
9. Candles 04:43
10. Poisoning Wlls 03:50
11. Blood Cosmology 01:35
12. Satan 05:04
******************************
Total playing time: 41:29



Extended info
Death Kvlt Productions


Technical info
(IMG:http://metalarea.org/images/spectrogram/2020_Nov/05a504ed3ed4d677a667b9ca5177008d.png)
Input File: 05 - Darkness Provoked.mp3
Channels : 2
Sample Rate : 44100
Precision : 16-bit
Duration : 00:05:36.40 = 14835108 samples = 25229.8 CDDA sectors
File Size : 13.5M
Bit Rate : 320k
Sample Encoding: MPEG audio (layer I, II or III)
Comments :
Title=Darkness Provoked
Artist=Ogof
Album=Full Moon Black Shadow
Tracknumber=5
Year=2020



Register


Go to the top of the page
  Insert nick Quick quote
+Quote Post
 
Start new topic
Replies (1 - 1)
post Nov 22 2020, 17:07:17
Post #2

Маньяк
**********
Group: Металариец
Posts: 1,064
Releases: 4
From: Харьков
On Forums: 12 years 3 months
Thanks: 387 time(s)
Ukraine


Шум есть, музыку забыли положить (IMG:style_emoticons/default/13.gif)


Thanks:
Go to the top of the page
  Insert nick Quick quote
+Quote Post

Reply to this topicStart new topic
2 User(s) are reading this topic (2 Guests and 0 Anonymous Users)
0 Members:

 



- Lo-Fi Version Support form
Copyrights and abuse reports form
Time is now: 1st December 2020 - 19:48:16