Welcome Guest ( Log In | Register )

> Malefactor - Into The Black Order [demo] (1995), Melodic Death Metal (D)
post Nov 22 2020, 11:37:17
Post #1

Подвал
**************
Group: Металариец
Posts: 15,428
Releases: 8791
From: Far East (Khabarovsk)
On Forums: 11 years 10 months
Thanks: 93965 time(s)
Russian Federation


(IMG:http://metalarea.org/images/audiocovers/2020_Nov/acov_tid344235_thumb.jpg)

*Artist: Malefactor
*Album: Into The Black Order [demo]
*Year: 1995
*Genre: Melodic Death Metal
*Country: Brazil (IMG:http://metalarea.org/forum/style_images/flags/Brazil.png)
*Format: mp3@CBR192kbps
*Size: 23MB

Tracklist:
1. Intro / Sacramental Embrace 07:24
2. Malleus Maleficarum 10:18
******************************
Total playing time: 17:42



Extended info
Produced, recorded and mixed in 16 channels at Doria's Studios.


Technical info
(IMG:http://metalarea.org/images/spectrogram/2020_Nov/f9aa86e852b1f2d59b64cc9a46bbb312.png)
Input File: 01-Intro - Sacramental Embrace.mp3
Channels : 2
Sample Rate : 44100
Precision : 16-bit
Duration : 00:07:24.88 = 19619340 samples = 33366.2 CDDA sectors
File Size : 10.7M
Bit Rate : 192k
Sample Encoding: MPEG audio (layer I, II or III)
Comments :
Title=Intro / Sacramental Embrace
Artist=Malefactor (Bra)
Album=Into the Black Order (Demo)
Tracknumber=01
Year=1995
Genre=Death Metal



Register


Go to the top of the page
  Insert nick Quick quote
+Quote Post
 
Start new topic
Replies (1 - 1)
post Nov 22 2020, 19:39:06
Post #2

Forever Underground
**************
Group: Металариец
Posts: 7,693
Releases: 0
On Forums: 5 years 7 months
Thanks: 10144 time(s)
Unknown


On Discogs the cover is completely different, so I suppose at least 2 versions was released, with different covers...
https://www.discogs.com/Malefactor-Into-The...elease/11250226 (IMG:style_emoticons/default/hmm.gif)
Go to the top of the page
  Insert nick Quick quote
+Quote Post

Reply to this topicStart new topic
2 User(s) are reading this topic (2 Guests and 0 Anonymous Users)
0 Members:

 



- Lo-Fi Version Support form
Copyrights and abuse reports form
Time is now: 29th November 2020 - 19:59:00