Welcome Guest ( Log In | Register )

> Releases Upload / Добавление релизов

Добавить релиз тут / Click here to add release
Рекомендованные обменники / Recommended file shares

 
Reply to this topicStart new topic
> Doktor Triceratops - 999 [demo] (1999), Thrash/Groove Metal (D4)
post Nov 22 2020, 12:09:36
Post #1

Подвал
**************
Group: Металариец
Posts: 15,438
Releases: 8796
From: Far East (Khabarovsk)
On Forums: 11 years 10 months
Thanks: 94024 time(s)
Russian Federation


(IMG:http://metalarea.org/images/audiocovers/2020_Nov/acov_tid344237_thumb.jpg)

*Artist: Doktor Triceratops
*Album: 999 [demo]
*Year: 1999
*Genre: Thrash/Groove Metal
*Country: Czech Republic (IMG:http://metalarea.org/forum/style_images/flags/Czech%20Republic.png)
*Format: mp3@CBR320kbps
*Size: 46MB

Tracklist:
1. Zelená Plíseň 03:18
2. Co By Se Stalo 04:12
3. Whisky Club 04:58
4. Milford Tea 02:30
5. Druhá Tráva 03:19
6. Na Rohu Belgický 02:28
******************************
Total playing time: 20:45



Technical info
(IMG:http://metalarea.org/images/spectrogram/2020_Nov/5fe5118b5fccd7ff957dbcc38b031ef0.png)
Input File: 01-Zelena Plisen.mp3
Channels : 2
Sample Rate : 44100
Precision : 16-bit
Duration : 00:03:18.43 = 8750895 samples = 14882.5 CDDA sectors
File Size : 8.00M
Bit Rate : 322k
Sample Encoding: MPEG audio (layer I, II or III)
Comments :
Title=Zelena plisen
Artist=DOKTOR TRICERATOPS
Album=999 (Demo)
Tracknumber=01
Year=1999
Genre=Thrash Metal



Register


Go to the top of the page
  Insert nick Quick quote
+Quote Post

Reply to this topicStart new topic
1 User(s) are reading this topic (1 Guests and 0 Anonymous Users)
0 Members:

 



- Lo-Fi Version Support form
Copyrights and abuse reports form
Time is now: 1st December 2020 - 19:24:07