Welcome Guest ( Log In | Register )

> Releases Upload / Добавление релизов

Добавить релиз тут / Click here to add release
Рекомендованные обменники / Recommended file shares

 
Reply to this topicStart new topic
> Akolyytti - Transcendence - The Beast Within [ep] (2020), Black Metal
post Nov 22 2020, 13:01:06
Post #1

Правь статус, ####!111
**************
Group: Металариец
Posts: 2,131
Releases: 1692
From: Praha
On Forums: 6 years 7 months
Thanks: 44138 time(s)
Czech Republic


(IMG:http://metalarea.org/images/audiocovers/2020_Nov/acov_tid344238_thumb.jpg)

*Artist: Akolyytti
*Album: Transcendence - The Beast Within [ep]
*Year: 2020
*Genre: Black Metal
*Country: Finland (IMG:http://metalarea.org/forum/style_images/flags/Finland.png)
*Format: mp3@CBR320kbps
*Size: 26MB

Tracklist:
1. Lycanthropia - Hunting in the Shadows 04:09
2. Nocturnal Blood Ceremony 05:28
******************************
Total playing time: 9:37



Extended info
Satanik Requiem


Technical info
(IMG:http://metalarea.org/images/spectrogram/2020_Nov/79be803c307c5dde0bec928c1bfd2c64.png)
Input File: 01. Lycanthropia - Hunting in the Shadows.mp3
Channels : 2
Sample Rate : 44100
Precision : 16-bit
Duration : 00:04:10.06 = 11027690 samples = 18754.6 CDDA sectors
File Size : 10.1M
Bit Rate : 323k
Sample Encoding: MPEG audio (layer I, II or III)
Comments :
Title=Lycanthropia - Hunting in the Shadows
Artist=Akolyytti
Album=Trancendence - The Beast Within
Tracknumber=01/02
Year=2020
Genre=Black metal



Register


Go to the top of the page
  Insert nick Quick quote
+Quote Post

Reply to this topicStart new topic
2 User(s) are reading this topic (2 Guests and 0 Anonymous Users)
0 Members:

 



- Lo-Fi Version Support form
Copyrights and abuse reports form
Time is now: 1st December 2020 - 19:31:43