Welcome Guest ( Log In | Register )

> Releases Upload / Добавление релизов

Добавить релиз тут / Click here to add release
Рекомендованные обменники / Recommended file shares

 
Reply to this topicStart new topic
> Azanul - Waar Alchemisten Regeren [demo] (2020), Black Metal
post Nov 22 2020, 13:17:04
Post #1

Правь статус, ####!111
**************
Group: Металариец
Posts: 2,129
Releases: 1692
From: Praha
On Forums: 6 years 7 months
Thanks: 44098 time(s)
Czech Republic


(IMG:http://metalarea.org/images/audiocovers/2020_Nov/acov_tid344240_thumb.jpg)

*Artist: Azanul
*Album: Waar Alchemisten Regeren [demo]
*Year: 2020
*Genre: Black Metal
*Country: Netherlands (IMG:http://metalarea.org/forum/style_images/flags/Netherlands.png)
*Format: mp3@CBR320kbps
*Size: 51MB

Tracklist:
1. Weemoed 04:24
2. Vervloekt 06:37
3. De kracht ontkend 04:40
4. Waar alchemisten regeren 06:25
******************************
Total playing time: 22:06



Extended info
Heidens Hart

Technical info
(IMG:http://metalarea.org/images/spectrogram/2020_Nov/545ae0aaf84b6511f46e956a4b636401.png)
Input File: 02. Vervloekt.mp3
Channels : 2
Sample Rate : 44100
Precision : 16-bit
Duration : 00:06:34.71 = 17406491 samples = 29602.9 CDDA sectors
File Size : 15.9M
Bit Rate : 321k
Sample Encoding: MPEG audio (layer I, II or III)
Comments :
Title=Vervloekt
Artist=Azanul
Album=Waar alchemisten regeren
Tracknumber=02/04
Year=2020
Genre=Black Metal



Register


Go to the top of the page
  Insert nick Quick quote
+Quote Post

Reply to this topicStart new topic
2 User(s) are reading this topic (2 Guests and 0 Anonymous Users)
0 Members:

 



- Lo-Fi Version Support form
Copyrights and abuse reports form
Time is now: 29th November 2020 - 20:39:51