Welcome Guest ( Log In | Register )

> Releases Upload / Добавление релизов

Добавить релиз тут / Click here to add release
Рекомендованные обменники / Recommended file shares

 
Reply to this topicStart new topic
> Graves Of The Abyss - Burial (2020), Death/Black Metal
post Nov 22 2020, 13:28:46
Post #1

MDM-Thrash Metal
**************
Group: Металариец
Posts: 10,002
Releases: 1103
From: Одесса
On Forums: 13 years 3 months
Thanks: 27314 time(s)
Ukraine


(IMG:http://metalarea.org/images/audiocovers/2020_Nov/acov_tid344241_thumb.jpg)

*Artist: Graves Of The Abyss
*Album: Burial
*Year: 2020
*Genre: Death/Black Metal
*Country: Canada (IMG:http://metalarea.org/forum/style_images/flags/Canada.png)
*Format: mp3@CBR320kbps
*Size: 90MB

Tracklist:
1. Burial 04:05
2. Can't Stop the Knife 04:30
3. Frost Warning 03:58
4. Saints of Eternal Swine 03:32
5. Dwellers 04:33
6. Slithering Fog 04:35
7. Blood Turns Black 04:25
8. Crucifixion Drain 09:25
******************************
Total playing time: 39:03




Technical info
(IMG:http://metalarea.org/images/spectrogram/2020_Nov/393f5eef5088ad41dad787e368311e2d.png)
Input File: 02 - Can\'t Stop The Knife.mp3
Channels : 2
Sample Rate : 44100
Precision : 16-bit
Duration : 00:04:30.93 = 11948013 samples = 20319.8 CDDA sectors
File Size : 11.0M
Bit Rate : 326k
Sample Encoding: MPEG audio (layer I, II or III)
Comments :
Title=Can't Stop The Knife
Artist=Graves of the Abyss
Album=Burial
Tracknumber=2
Year=2020



Register


Go to the top of the page
  Insert nick Quick quote
+Quote Post

Reply to this topicStart new topic
2 User(s) are reading this topic (2 Guests and 0 Anonymous Users)
0 Members:

 



- Lo-Fi Version Support form
Copyrights and abuse reports form
Time is now: 29th November 2020 - 19:56:55