Welcome Guest ( Log In | Register )

> Releases Upload / Добавление релизов

Добавить релиз тут / Click here to add release
Рекомендованные обменники / Recommended file shares

> Revigator - Medieval (2020), Death/Thrash Metal
post Nov 22 2020, 13:37:56
Post #1

MDM-Thrash Metal
**************
Group: Металариец
Posts: 10,087
Releases: 1131
From: Одесса
On Forums: 13 years 5 months
Thanks: 28024 time(s)
Ukraine


(IMG:http://metalarea.org/images/audiocovers/2020_Nov/acov_tid344244_thumb.jpg)

*Artist: Revigator
*Album: Medieval
*Year: 2020
*Genre: Death/Thrash Metal
*Country: Sweden (IMG:http://metalarea.org/forum/style_images/flags/Sweden.png)
*Format: mp3@CBR320kbps
*Size: 68MB

Tracklist:
1. Witch Mountain (Part 1 : The Process) 04:19
2. Witch Mountain (Part 2 : The Execution) 02:28
3. Malleus Maleficarum 03:01
4. Iron Spider 03:12
5. Judas Cradle 03:56
6. Heretics Fork 03:44
7. Head Crusher 03:32
8. Black Death 03:02
9. Premature Burial 00:48
******************************
Total playing time: 28:02




Extended info
Stefan Forsberg Everything
See also: Ampulex Dementor


Technical info
(IMG:http://metalarea.org/images/spectrogram/2020_Nov/ec6073f08142b039e540ab444fa7e49b.png)
Input File: Revigator - Medieval - 02 Witch Mountain (Part 2 - The Execution).mp3
Channels : 2
Sample Rate : 44100
Precision : 16-bit
Duration : 00:02:28.59 = 6552907 samples = 11144.4 CDDA sectors
File Size : 6.09M
Bit Rate : 328k
Sample Encoding: MPEG audio (layer I, II or III)
Comments :
Title=Witch Mountain (Part 2 : The Execution)
Artist=Revigator
Album=Medieval
Tracknumber=2
Year=2020



Register


Go to the top of the page
  Insert nick Quick quote
+Quote Post
 
Start new topic
Replies (1 - 1)
post Nov 24 2020, 12:28:13
Post #2

Маньяк
**********
Group: Металариец
Posts: 1,070
Releases: 4
From: Харьков
On Forums: 12 years 5 months
Thanks: 390 time(s)
Ukraine


Go to the top of the page
  Insert nick Quick quote
+Quote Post

Reply to this topicStart new topic
1 User(s) are reading this topic (1 Guests and 0 Anonymous Users)
0 Members:

 



- Lo-Fi Version Support form
Copyrights and abuse reports form
Time is now: 20th January 2021 - 20:08:31