Welcome Guest ( Log In | Register )

> Releases Upload / Добавление релизов

Добавить релиз тут / Click here to add release
Рекомендованные обменники / Recommended file shares

> Eternal Genocide - Funeral (Last Rites) [ep] (2018), Black Metal
post Nov 22 2020, 13:46:36
Post #1

A.M.S.G.
**************
Group: Металариец
Posts: 2,632
Releases: 52
From: Припять
On Forums: 12 years 7 months
Thanks: 1659 time(s)
Russian Federation


(IMG:https://metalarea.org/images/audiocovers/2020_Nov/acov_tid344245_thumb.jpg)

*Artist: Eternal Genocide
*Album: Funeral (Last Rites) [ep]
*Year: 2018
*Genre: Black Metal
*Country: Russian Federation (IMG:https://metalarea.org/forum/style_images/flags/Russian%20Federation.png)
*Format: mp3@CBR320kbps
*Size: 54MB

Tracklist:
1. I (Death Is My Fate) 05:38
2. II (Death Came) 06:39
3. III(Death Of Life - Ritual Of Universal Death) 06:25
4. IV (Disgust To Life - Death Is My Fate II) 05:01
******************************
Total playing time: 23:43

Extended info
Похороны(Последний Путь),был записан в период с 2009 по 2012 год. Это последний погребальный релиз группы. R.I.P.


Technical info
(IMG:https://metalarea.org/images/spectrogram/2020_Nov/d71612ce0be073f9d6c060facde1f655.png)
Input File: 02 - II (Death Came).mp3
Channels : 2
Sample Rate : 44100
Precision : 16-bit
Duration : 00:06:38.65 = 17580465 samples = 29898.8 CDDA sectors
File Size : 15.9M
Bit Rate : 320k
Sample Encoding: MPEG audio (layer I, II or III)
Comments :
Artist=Eternal Genocide
Album=Funeral(Last Rites)(EP)



Register


Go to the top of the page
  Insert nick Quick quote
+Quote Post
 
Start new topic
Replies (1 - 4)
post Nov 22 2020, 15:23:21
Post #2

Group: Подсевший
Posts: 29
Releases: 0
From: Moscow
On Forums: 4 years 9 months
Thanks: 28 time(s)
Unknown


Настолько скорбная работа,хоть и быстрые треки в основном,печаль,отреченность,холод идет от музыки черной волной.Жаль,что последний релиз группы,а ведь группа была хорошая.Может это и к лучшему,а может и нет.Создателю видней.Надо переслушать всю дискографию.


Go to the top of the page
  Insert nick Quick quote
+Quote Post
post Nov 22 2020, 17:59:03
Post #3
BAN
Banned till
Dec 22 2020, 18:54:37



Этой работой группа сыграла панихиду по самой себе. Я тяжело воспринимаю такие моменты в музыкальном амплуа, эта музыка сугубо личностных переживаний, как если ты стоишь у гроба. Т.е она больше персонифицирована , чем абстрактна - Смерть, Небытие, Уход. В данном случае - персонификация - это творческий путь в роли усопшего.
Музыкально -опять таки не мое, ибо не переживаю до глубины всю палитру, хотя по энергетике вся эта вязь - губительна. Особенно, если ты касаешься этого на собственной шкуре. Думаю, такой вояж идеально ляжет под Шествие, вместо унылого похоронного марша, но без вокала. Здесь он -лишний.


Go to the top of the page
  Insert nick Quick quote
+Quote Post
post Nov 23 2020, 12:09:18
Post #4

De Mysteriis Dom Sathanas
**************
Group: Металариец
Posts: 4,149
Releases: 63
From: Doom
On Forums: 12 years 4 months
Thanks: 3540 time(s)
Russian Federation


Иэх, забанили Сетуриуса на целый месяц, теперь норм рецензии не почитаю. В чем провинился сей отрок?
Go to the top of the page
  Insert nick Quick quote
+Quote Post
post Nov 25 2020, 14:52:42
Post #5

Group: Дух
Posts: 1
Releases: 0
From: Moscow
On Forums: 2 years 10 months
Thanks: 1 time(s)
Russian Federation


Отличный материал, который достойно опускает занавес проекта. Если уходить, то вот с такой музыкой. Куда хуже, когда делают взброс и все, разбирайтесь сами. Вокал весьма суицидальный, что определенно украшает работу. Прослушивать необходимо с полным ртом земли с кладбища, если только собираетесь...


Thanks:
Go to the top of the page
  Insert nick Quick quote
+Quote Post

Reply to this topicStart new topic
2 User(s) are reading this topic (2 Guests and 0 Anonymous Users)
0 Members:

 



- Lo-Fi Version Support form
Copyrights and abuse reports form
Time is now: 29th November 2020 - 20:18:37