Welcome Guest ( Log In | Register )

 
Reply to this topicStart new topic
> Parasitic Entity - The Self Aggrandising Lie (2020), Technical Death Metal
post Nov 22 2020, 13:49:44
Post #1

MDM-Thrash Metal
**************
Group: Металариец
Posts: 10,158
Releases: 1152
From: Одесса
On Forums: 13 years 6 months
Thanks: 28469 time(s)
Ukraine


(IMG:http://metalarea.org/images/audiocovers/2020_Nov/acov_tid344246_thumb.jpg)

*Artist: Parasitic Entity
*Album: The Self Aggrandising Lie
*Year: 2020
*Genre: Technical Death Metal
*Country: United Kingdom (IMG:http://metalarea.org/forum/style_images/flags/United%20Kingdom.png)
*Format: mp3@CBR320kbps
*Size: 109MB

Tracklist:
1. Diminished Potency 04:05
2. Schrödinger's Reality 06:25
3. Delusional Supremacy 05:49
4. Halls Built on Bones of the Past 05:47
5. In Defiance of a Narcissist King 07:37
6. The Cynic 06:23
7. Depravities Reflection 07:09
******************************
Total playing time: 43:15




Extended info
Joe Potts Guitars, Bass, Drum programming
Liam McKeown Vocals


Technical info
(IMG:http://metalarea.org/images/spectrogram/2020_Nov/d12a122d8102385831088eeb3a546bad.png)
Input File: Parasitic Entity - The Self Aggrandising Lie - 02 Schrodinger\'s Reality.mp3
Channels : 2
Sample Rate : 44100
Precision : 16-bit
Duration : 00:06:25.98 = 17021718 samples = 28948.5 CDDA sectors
File Size : 15.8M
Bit Rate : 327k
Sample Encoding: MPEG audio (layer I, II or III)
Comments :
Title=Schrodinger's Reality
Artist=Parasitic Entity
Album=The Self Aggrandising Lie
Tracknumber=2
Year=2020



Register


Go to the top of the page
  Insert nick Quick quote
+Quote Post

Reply to this topicStart new topic
1 User(s) are reading this topic (1 Guests and 0 Anonymous Users)
0 Members:

 



- Lo-Fi Version Support form
Copyrights and abuse reports form
Time is now: 25th February 2021 - 02:31:57