Welcome Guest ( Log In | Register )

> Releases Upload / Добавление релизов

Добавить релиз тут / Click here to add release
Рекомендованные обменники / Recommended file shares

 
Reply to this topicStart new topic
> Homicide - Left For Dead (2020), Thrash Metal/Crossover (D)
post Nov 22 2020, 23:07:57
Post #1

Правь статус, ####!111
**************
Group: Металариец
Posts: 24,566
Releases: 17398
From: Г.Харьков
On Forums: 8 years 8 months
Thanks: 335440 time(s)
Unknown


(IMG:http://metalarea.org/images/audiocovers/2020_Nov/acov_tid344269_thumb.jpg)

*Artist: Homicide
*Album: Left For Dead
*Year: 2020
*Genre: Thrash Metal/Crossover
*Country: Canada (IMG:http://metalarea.org/forum/style_images/flags/Canada.png)
*Format: mp3@CBR320kbps
*Size: 72MB

Tracklist:
1. Shot To Hell 04:43
2. Point Blank Rage 04:15
3. Left For Dead 04:15
4. Enemy of The State 05:06
5. Nightmares of The Apocalypse 02:28
6. Scorched Earth 03:45
7. Scourge of God 05:43
******************************
Total playing time: 30:15




Extended info
Mac Bass
Scottie Drums
See also: ex-Lizard
Bryan Guitars
See also: ex-E-Force
Gab Guitars, Vocals


Technical info
(IMG:http://metalarea.org/images/spectrogram/2020_Nov/7528c09768dfaa89ff4c706f9846b22e.png)
Input File: 04 Enemy of the State.mp3
Channels : 2
Sample Rate : 44100
Precision : 16-bit
Duration : 00:05:06.43 = 13513695 samples = 22982.5 CDDA sectors
File Size : 12.7M
Bit Rate : 331k
Sample Encoding: MPEG audio (layer I, II or III)
Comments :
Title=Enemy of the State
Artist=Homicide
Album=Left for Dead
Tracknumber=4/7
Year=2020-20-20
Genre=Metal
Discnumber=1/1



Register


Go to the top of the page
  Insert nick Quick quote
+Quote Post

Reply to this topicStart new topic
1 User(s) are reading this topic (1 Guests and 0 Anonymous Users)
0 Members:

 



- Lo-Fi Version Support form
Copyrights and abuse reports form
Time is now: 17th January 2021 - 14:24:52