Welcome Guest ( Log In | Register )

> Phaëthon - Sacrifice Doth Call [ep] (2020), Epic Heavy Metal
post Nov 27 2020, 17:07:11
Post #1

Правь статус, ####!111
**************
Group: Металариец
Posts: 28,174
Releases: 20563
From: Г.Харьков
On Forums: 9 years 6 months
Thanks: 418755 time(s)
Unknown


(IMG:http://metalarea.org/images/audiocovers/2020_Nov/acov_tid344427_thumb.jpg)

*Artist: Phaëthon
*Album: Sacrifice Doth Call [ep]
*Year: 2020
*Genre: Epic Heavy Metal
*Country: United Kingdom (IMG:http://metalarea.org/forum/style_images/flags/United%20Kingdom.png)
*Format: mp3@CBR320kbps
*Size: 75MB

Tracklist:
1. Sacrifice Doth Call 05:29
2. Suncrater 05:22
3. To the Gallows 04:19
4. Bless Us, O Ra 05:18
5. The Final Beholder 12:32
******************************
Total playing time: 33:00




Extended info
Aees Bass
See also: Dysemblem, ex-Injekting Khaos, ex-Craven Idol (live)
Herr Berthelsen Drums
Vrath Vocals, Guitars, Keyboards
See also: Craven Idol, Crom Dubh, Disfago, Scythian, ex-Sepulchral Temple, ex-Coprofagi, ex-Satanic Torment (live), ex-Crosswrecker, ex-Sacrificial Dagger


Technical info
(IMG:http://metalarea.org/images/spectrogram/2020_Nov/7b340015f108e984a1dadc193d391324.png)
Input File: Phaëthon - Sacrifice Doth Call - 04 Bless Us, O Ra.mp3
Channels : 2
Sample Rate : 44100
Precision : 16-bit
Duration : 00:05:18.08 = 14027504 samples = 23856.3 CDDA sectors
File Size : 12.8M
Bit Rate : 322k
Sample Encoding: MPEG audio (layer I, II or III)
Comments :
Title=Bless Us, O Ra
Artist=Phaëthon
Album=Sacrifice Doth Call
Tracknumber=4
Year=2020



Register


Go to the top of the page
  Insert nick Quick quote
+Quote Post
 
Start new topic
Replies (1 - 2)
post Dec 1 2020, 17:25:14
Post #2

Маньяк
**********
Group: Металариец
Posts: 1,413
Releases: 5
From: Нью-Васюки
On Forums: 15 years 6 months
Thanks: 422 time(s)
Russian Federation


Фекалия из подвала, ни о чем.


Thanks:
Go to the top of the page
  Insert nick Quick quote
+Quote Post
post Dec 1 2020, 18:56:29
Post #3

Три Литра
***
Group: Завсегдатай
Posts: 222
Releases: 0
On Forums: 1 year 3 months
Thanks: 165 time(s)
Unknown


ЦИТАТА(Darkness @ Dec 1 2020, 23:25:14) *
Фекалия из подвала, ни о чем.


Трудно не согласится (IMG:style_emoticons/default/22.gif)
Go to the top of the page
  Insert nick Quick quote
+Quote Post

Reply to this topicStart new topic
2 User(s) are reading this topic (2 Guests and 0 Anonymous Users)
0 Members:

 



- Lo-Fi Version Support form
Copyrights and abuse reports form
Time is now: 4th December 2021 - 11:57:47