Welcome Guest ( Log In | Register )

> И неформату есть предел.

Рэп/хип-хоп/шансон/поп удаляются. Для них есть свои порталы.

> Vielikan - Dreams From The Black Marsh - Exodus (2020), Ambient/Dark Folk (D4)
post Nov 28 2020, 15:27:05
Post #1

hard wired sci-fi
**************
Group: Металариец
Posts: 2,730
Releases: 57
On Forums: 3 years 1 week
Thanks: 3033 time(s)
Unknown


(IMG:https://metalarea.org/images/audiocovers/2020_Nov/acov_tid344470_thumb.jpg)

*Artist: Vielikan
*Album: Dreams From The Black Marsh - Exodus
*Year: 2020
*Genre: Ambient/Dark Folk
*Country: Tunisia (IMG:https://metalarea.org/forum/style_images/flags/Tunisia.png)
*Format: mp3@CBR320kbps
*Size: 116MB

Tracklist:
1.Dreams from the Black Marsh - Exodus 48:26
******************************
Total playing time: 48:26



Extended info
"This record is a live performance I played in an event in march 2019, interpreting an instrumentale atmospheric / dark ambient improvisation based on 'Back to the Black Marsh' theme.

This is the first 'Dreams from the Black Marsh' Vielikan release"
- Fedor Kovalevsky


Technical info
(IMG:https://metalarea.org/images/spectrogram/2020_Nov/dbe1bfd25f286408456f80e3a80290e5.png)
Input File: 01. Dreams from the Black Marsh - Exodus.mp3
Channels : 2
Sample Rate : 44100
Precision : 16-bit
Duration : 00:48:26.42 = 128172990 samples = 217981 CDDA sectors
File Size : 116M
Bit Rate : 321k
Sample Encoding: MPEG audio (layer I, II or III)
Comments :
Title=Dreams from the Black Marsh - Exodus
Artist=Vielikan
Album=Dreams from the Black Marsh - Exodus
Tracknumber=1
Year=2020



Register


Go to the top of the page
  Insert nick Quick quote
+Quote Post
 
Start new topic
Replies (1 - 1)
post Dec 10 2020, 10:06:32
Post #2

Override the Overture
******
Group: Металариец
Posts: 659
Releases: 0
From: Moscow
On Forums: 13 years 2 weeks
Thanks: 124 time(s)
Russian Federation


так понимаю, это соотечественник, творящий в Тунисе?

Запись любопытная - нраица
Go to the top of the page
  Insert nick Quick quote
+Quote Post

Reply to this topicStart new topic
1 User(s) are reading this topic (1 Guests and 0 Anonymous Users)
0 Members:

 



- Lo-Fi Version Support form
Copyrights and abuse reports form
Time is now: 27th January 2021 - 19:58:38