Welcome Guest ( Log In | Register )

> И неформату есть предел.

Рэп/хип-хоп/шансон/поп удаляются. Для них есть свои порталы.

> AC/DC - Ballbreaker (1995), Hard Rock (D21)
post Nov 30 2020, 17:28:16
Post #1

Правь статус, ####!111
**************
Group: Металариец
Posts: 48,041
Releases: 763
On Forums: 11 years 7 months
Thanks: 41557 time(s)
Russian Federation


(IMG:http://metalarea.org/images/audiocovers/2020_Nov/acov_tid344577_thumb.jpg)

*Artist: AC/DC
*Album: Ballbreaker
*Year: 1995
*Genre: Hard Rock
*Country: Australia (IMG:http://metalarea.org/forum/style_images/flags/Australia.png)
*Format: mp3@CBR320kbps
*Size: 111MB

Tracklist:
1. Hard As A Rock 04:31
2. Cover You in Oil 04:33
3. The Furor 04:11
4. Boogie Man 04:07
5. The Honey Roll 05:35
6. Burnin' Alive 05:05
7. Hail Caesar 05:14
8. Love Bomb 03:14
9. Caught With Your Pants Down 04:15
10. Whiskey On The Rocks 04:35
11. Ballbreaker 04:31
******************************
Total playing time: 49:51

(IMG:http://metalarea.org/images/youtube.png)

Technical info
(IMG:http://metalarea.org/images/spectrogram/2020_Nov/4fc7e93525b6686755d97f376bfc4476.png)
Input File: A1. Hard As A Rock.mp3
Channels : 2
Sample Rate : 44100
Precision : 16-bit
Duration : 00:04:31.12 = 11956216 samples = 20333.7 CDDA sectors
File Size : 10.9M
Bit Rate : 323k
Sample Encoding: MPEG audio (layer I, II or III)
Comments :
Title=Hard As A Rock
Artist=AC/DC
Album=Ballbreaker (LP) [EastWest Rec., 61780-1]
Tracknumber=01/11
Year=1995
Genre=Hard Rock



Register


Go to the top of the page
  Insert nick Quick quote
+Quote Post
 
Start new topic
Replies (1 - 3)
post Dec 1 2020, 11:51:30
Post #2

Правь статус, ####!111
**************
Group: Металариец
Posts: 48,041
Releases: 763
On Forums: 11 years 7 months
Thanks: 41557 time(s)
Russian Federation


Caught With Your Pants Down и Ballbreaker жгут напалмом. (IMG:style_emoticons/default/banana.gif)
Go to the top of the page
  Insert nick Quick quote
+Quote Post
post Dec 2 2020, 19:12:17
Post #3

Ёлд ХеллоВяйне
Group Icon
Group: V.I.P
Posts: 30,900
Releases: 139
From: Питер
On Forums: 14 years 2 months
Thanks: 18843 time(s)
Russian Federation


QUOTE
The Furor


Одна из лучших песен группы.
Go to the top of the page
  Insert nick Quick quote
+Quote Post
post Dec 3 2020, 22:21:41
Post #4

Четыре Литра
****
Group: Металариец
Posts: 361
Releases: 0
On Forums: 11 years 7 months
Thanks: 102 time(s)
Russian Federation


Самый лучший альбом!!!
Go to the top of the page
  Insert nick Quick quote
+Quote Post

Reply to this topicStart new topic
1 User(s) are reading this topic (1 Guests and 0 Anonymous Users)
0 Members:

 



- Lo-Fi Version Support form
Copyrights and abuse reports form
Time is now: 22nd January 2021 - 00:32:40