Welcome Guest ( Log In | Register )

> И неформату есть предел.

Рэп/хип-хоп/шансон/поп удаляются. Для них есть свои порталы.

> Lykantropi - Tales To Be Told (2020), 70's Psychedelic/Occult Rock
post Dec 3 2020, 11:14:48
Post #1

Правь статус, ####!111
**************
Group: Металариец
Posts: 48,041
Releases: 763
On Forums: 11 years 7 months
Thanks: 41572 time(s)
Russian Federation


(IMG:http://metalarea.org/images/audiocovers/2020_Dec/acov_tid344655_thumb.jpg)

*Artist: Lykantropi
*Album: Tales To Be Told
*Year: 2020
*Genre: 70's Psychedelic/Occult Rock
*Country: Sweden (IMG:http://metalarea.org/forum/style_images/flags/Sweden.png)
*Format: mp3@CBR320kbps
*Size: 93MB

Tracklist:
1. Coming Your Way 03:57
2. Tales To Be Told 04:57
3. Mother Of Envy 04:32
4. Kom Ta Mig Ut 06:37
5. Spell On Me 04:07
6. Axis Of Margaret 05:12
7. Life On Hold 04:30
8. Varlden Gar Vidare 06:35
******************************
Total playing time: 40:27



Technical info
(IMG:http://metalarea.org/images/spectrogram/2020_Dec/ba22ca4b14124a2585797a9afca48702.png)
Input File: 08 - Varlden Gar Vidare.mp3
Channels : 2
Sample Rate : 44100
Precision : 16-bit
Duration : 00:06:35.88 = 17458352 samples = 29691.1 CDDA sectors
File Size : 15.9M
Bit Rate : 321k
Sample Encoding: MPEG audio (layer I, II or III)
Comments :
Title=Världen går vidare
Artist=Lykantropi
Album=Tales to be Told
Tracknumber=8
Year=2020
Genre=70's Psychedelic Rock



Register


Go to the top of the page
  Insert nick Quick quote
+Quote Post
 
Start new topic
Replies (1 - 5)
post Dec 3 2020, 14:38:23
Post #2

Три Литра
***
Group: Завсегдатай
Posts: 286
Releases: 20
From: Saint-Petersburg, Купчино
On Forums: 15 years 2 months
Thanks: 487 time(s)
Russian Federation


Вот не въезжаю что такое/где психоделик-оккульт? Очередная шизгара подъехала просто и всё.
Go to the top of the page
  Insert nick Quick quote
+Quote Post
post Dec 3 2020, 19:10:26
Post #3

Groove/Industrial/Aggressive Nu Metal
**************
Group: Металариец
Posts: 2,627
Releases: 65
From: Technical Death из 90-х
On Forums: 10 years 6 months
Thanks: 5912 time(s)
Unknown


Душевно так! Спасибо!


(IMG:style_emoticons/default/20.gif)


Thanks:
(1) Ash_1980,
Go to the top of the page
  Insert nick Quick quote
+Quote Post
post Dec 14 2020, 07:45:00
Post #4

Group: Подсевший
Posts: 21
Releases: 0
On Forums: 9 months 1 week
Thanks: 19 time(s)
Unknown


ЦИТАТА(Maximvs @ Dec 3 2020, 14:38:23) *
Вот не въезжаю что такое/где психоделик-оккульт? Очередная шизгара подъехала просто и всё.


Так весь ретро-хард протегован) А получилось да, весьма душевно, у этих ребят слабых работ нет. Надыбал флак, спешу поделиться
Register


Thanks:
(1) Kazoth,
Go to the top of the page
  Insert nick Quick quote
+Quote Post
post Dec 19 2020, 10:09:18
Post #5

Override the Overture
******
Group: Металариец
Posts: 655
Releases: 0
From: Moscow
On Forums: 13 years 1 week
Thanks: 123 time(s)
Russian Federation


ЦИТАТА(Maximvs @ Dec 3 2020, 16:38:23) *
Очередная шизгара и всё.


после этого можно смело качать (IMG:style_emoticons/default/1488.gif)

лучшая рекомендация для любителей жанра


Thanks:
(1) Ghostb,
Go to the top of the page
  Insert nick Quick quote
+Quote Post
post Dec 21 2020, 12:35:06
Post #6

Правь статус, ####!111
**************
Group: Металариец
Posts: 48,041
Releases: 763
On Forums: 11 years 7 months
Thanks: 41572 time(s)
Russian Federation


Один из лучших альбомов 2020 года.
Go to the top of the page
  Insert nick Quick quote
+Quote Post

Reply to this topicStart new topic
1 User(s) are reading this topic (1 Guests and 0 Anonymous Users)
0 Members:

 



- Lo-Fi Version Support form
Copyrights and abuse reports form
Time is now: 22nd January 2021 - 09:30:12