Welcome Guest ( Log In | Register )

> Serpents Oath - Nihil (2020), Black Metal
post Dec 3 2020, 13:51:28
Post #1

Правь статус, ####!111
**************
Group: Металариец
Posts: 25,790
Releases: 18466
From: Г.Харьков
On Forums: 8 years 11 months
Thanks: 364668 time(s)
Unknown


(IMG:https://metalarea.org/images/audiocovers/2020_Dec/acov_tid344668_thumb.jpg)

*Artist: Serpents Oath
*Album: Nihil
*Year: 2020
*Genre: Black Metal
*Country: Belgium (IMG:https://metalarea.org/forum/style_images/flags/Belgium.png)
*Format: mp3@CBR320kbps
*Size: 83MB

Tracklist:
01. Vox Mortis
02. Speaking in Tongues
03. Leviathan Speaks
04. Thrice Cursed
05. Malediction
06. Serpents of Eight
07. Bestia Resurrectus
08. Into the Abyss
09. Mephisto
10. The Beast Reborn
11. The Swords of Night and Day
12. Beyond the Gates
******************************
Total playing time: 36:19




Extended info


Technical info
(IMG:https://metalarea.org/images/spectrogram/2020_Dec/c0040ed1225b3882e0a061a60819027d.png)
Input File: 08. Into the Abyss.mp3
Channels : 2
Sample Rate : 44100
Precision : 16-bit
Duration : 00:04:43.81 = 12516153 samples = 21286 CDDA sectors
File Size : 11.4M
Bit Rate : 322k
Sample Encoding: MPEG audio (layer I, II or III)
Comments :
Title=Into the Abyss
Artist=Serpents Oath
Album=Nihil
Tracknumber=8
Year=2020
Genre=Black Metal
Discnumber=1



Register


Go to the top of the page
  Insert nick Quick quote
+Quote Post
 
Start new topic
Replies (1 - 5)
post Dec 4 2020, 07:19:33
Post #2

Четыре Литра
****
Group: Металариец
Posts: 303
Releases: 20
From: Saint-Petersburg, Купчино
On Forums: 15 years 5 months
Thanks: 498 time(s)
Russian Federation


Блэкодэз, ровный но абсолютно неинтересный. Послушать раз и удалить.
Go to the top of the page
  Insert nick Quick quote
+Quote Post
post Dec 4 2020, 09:29:09
Post #3

Семь Литров
*******
Group: Металариец
Posts: 733
Releases: 1
On Forums: 1 year 10 months
Thanks: 535 time(s)
Russian Federation


Да просто заурядный материал по шведской школе в духе Watain и подобного.


Thanks:
Go to the top of the page
  Insert nick Quick quote
+Quote Post
post Dec 4 2020, 17:31:30
Post #4

Три Литра
***
Group: Завсегдатай
Posts: 222
Releases: 0
On Forums: 7 months 3 weeks
Thanks: 157 time(s)
Unknown


Действительно прёт Watain'ом позднего периода из каждой ноты. А на выходе пустое копирование и неинтересный материал. Есть в маленькой Бельгии банды куда интересней этой.
Go to the top of the page
  Insert nick Quick quote
+Quote Post
post Dec 6 2020, 12:29:03
Post #5

Common dweller of hell
**************
Group: Металариец
Posts: 3,677
Releases: 12
From: Dnipro
On Forums: 12 years 9 months
Thanks: 1440 time(s)
Ukraine


ЦИТАТА(noxspiritus @ Dec 4 2020, 18:31:30) *
А на выходе пустое копирование и неинтересный материал.

Несогласен (IMG:style_emoticons/default/23.gif)


Thanks:
Go to the top of the page
  Insert nick Quick quote
+Quote Post
post Jan 6 2021, 16:54:25
Post #6

добрый мизантроп
**************
Group: Металариец
Posts: 2,136
Releases: 1
From: Минск
On Forums: 10 years 5 months
Thanks: 1012 time(s)
Madagascar


Мне чет Ватайн сразу не напомнило, хоть его заслушивался и на концерте был. А вот напоминает среднее по западно-славянскому блэку, ток посуше и похолоднее.
Вообще музыка красивая и отшлифованая, нет претензий, еще погоняю и скорее всего оставлю.
Go to the top of the page
  Insert nick Quick quote
+Quote Post

Reply to this topicStart new topic
2 User(s) are reading this topic (2 Guests and 0 Anonymous Users)
0 Members:

 



- Lo-Fi Version Support form
Copyrights and abuse reports form
Time is now: 19th April 2021 - 10:38:37