Welcome Guest ( Log In | Register )

> Evil Seeds - Theory Of Fear (2020), Heavy Metal
post Dec 3 2020, 15:56:24
Post #1

Правь статус, ####!111
**************
Group: Металариец
Posts: 28,174
Releases: 20563
From: Г.Харьков
On Forums: 9 years 6 months
Thanks: 418750 time(s)
Unknown


(IMG:https://metalarea.org/images/audiocovers/2020_Dec/acov_tid344672_thumb.jpg)

*Artist: Evil Seeds
*Album: Theory Of Fear
*Year: 2020
*Genre: Heavy Metal
*Country: Spain (IMG:https://metalarea.org/forum/style_images/flags/Spain.png)
*Format: mp3@CBR320kbps
*Size: 105MB

Tracklist:
01. King of the Ring 04:59
02. Stronger 04:39
03. Inside the Vipers' Nest 03:22
04. Theory of Fear 05:56
05. Against All Gods 04:58
06. No Plan B 06:14
07. Layers with Blood 04:41
08. To Hell with It All 03:52
09. Lover of Death 06:34
******************************
Total playing time: 45:15



Extended info
Roma Vocals
Tello Oraá Bass
Rodri Soto Guitars
Unai Elorza Drums
Josu Llona Guitars



Technical info
(IMG:https://metalarea.org/images/spectrogram/2020_Dec/a6cb31a85e4071972c5e92a3e1dbc09d.png)
Input File: 07 - Layers with Blood.mp3
Channels : 2
Sample Rate : 44100
Precision : 16-bit
Duration : 00:04:40.78 = 12382486 samples = 21058.6 CDDA sectors
File Size : 11.4M
Bit Rate : 324k
Sample Encoding: MPEG audio (layer I, II or III)
Comments :
Title=Layers with Blood
Artist=Evil Seeds
Album=Theory Of Fear
Tracknumber=7
Year=2020
Discnumber=1/1



Register


Go to the top of the page
  Insert nick Quick quote
+Quote Post
 
Start new topic
Replies (1 - 5)
post Dec 4 2020, 08:36:16
Post #2

hearer & reader
**************
Group: Металариец
Posts: 9,998
Releases: 179
From: Moscow
On Forums: 14 years 2 months
Thanks: 11496 time(s)
Russian Federation


https://music.yandex.ru/album/12974434
Неплохо..
Go to the top of the page
  Insert nick Quick quote
+Quote Post
post Dec 4 2020, 18:05:00
Post #3

Мегаманьяк
***********
Group: Металариец
Posts: 1,512
Releases: 0
From: Russian Federation - St.Petersburg
On Forums: 12 years 9 months
Thanks: 414 time(s)
Russian Federation


Кхе-кхе, на видике прямо как JP с Риппером, Роме зачёт! (IMG:style_emoticons/default/1488.gif)
Go to the top of the page
  Insert nick Quick quote
+Quote Post
post Dec 5 2020, 06:05:54
Post #4

hearer & reader
**************
Group: Металариец
Posts: 9,998
Releases: 179
From: Moscow
On Forums: 14 years 2 months
Thanks: 11496 time(s)
Russian Federation


Register
Go to the top of the page
  Insert nick Quick quote
+Quote Post
post Dec 9 2020, 22:24:23
Post #5

Маньяк
**********
Group: Металариец
Posts: 1,413
Releases: 5
From: Нью-Васюки
On Forums: 15 years 6 months
Thanks: 422 time(s)
Russian Federation


Офигенная группа.


Thanks:
Go to the top of the page
  Insert nick Quick quote
+Quote Post
post Feb 6 2021, 15:02:11
Post #6

Пять Литров
*****
Group: Металариец
Posts: 447
Releases: 6
From: Суворов
On Forums: 3 years 10 months
Thanks: 104 time(s)
Russian Federation


Эти мимо, к сожалению
Go to the top of the page
  Insert nick Quick quote
+Quote Post

Reply to this topicStart new topic
2 User(s) are reading this topic (2 Guests and 0 Anonymous Users)
0 Members:

 



- Lo-Fi Version Support form
Copyrights and abuse reports form
Time is now: 4th December 2021 - 11:37:22