Welcome Guest ( Log In | Register )

> Releases Upload / Добавление релизов

Добавить релиз тут / Click here to add release
Рекомендованные обменники / Recommended file shares

 
Reply to this topicStart new topic
> Carnareum - Field Of Terrors (2020), Heavy/Thrash Metal
post Dec 9 2020, 17:03:32
Post #1

Правь статус, ####!111
**************
Group: Металариец
Posts: 24,572
Releases: 17403
From: Г.Харьков
On Forums: 8 years 8 months
Thanks: 335540 time(s)
Unknown


(IMG:https://metalarea.org/images/audiocovers/2020_Dec/acov_tid344882_thumb.jpg)

*Artist: Carnareum
*Album: Field Of Terrors
*Year: 2020
*Genre: Heavy/Thrash Metal
*Country: Sweden (IMG:https://metalarea.org/forum/style_images/flags/Sweden.png)
*Format: mp3@CBR320kbps
*Size: 83MB

Tracklist:
1. Crowd Control
2. Cover Me
3. Carousel
4. Stand By
5. Hang Tight
6. Amor Arch
7. Blind by Lies
8. See You Later
9. Remembrance
10. Follow Us
******************************
Total playing time: 35:36

(IMG:https://metalarea.org/images/youtube.png)


Technical info
(IMG:https://metalarea.org/images/spectrogram/2020_Dec/52a5c034a2dbc865cc03e85945e1ef6f.png)
Input File: 08 - See You Later.mp3
Channels : 2
Sample Rate : 44100
Precision : 16-bit
Duration : 00:04:19.57 = 11446905 samples = 19467.5 CDDA sectors
File Size : 10.6M
Bit Rate : 325k
Sample Encoding: MPEG audio (layer I, II or III)
Comments :
Title=See You Later
Artist=Carnareum
Album=Field of Terrors
Tracknumber=8
Year=2020



Register


Go to the top of the page
  Insert nick Quick quote
+Quote Post

Reply to this topicStart new topic
1 User(s) are reading this topic (1 Guests and 0 Anonymous Users)
0 Members:

 



- Lo-Fi Version Support form
Copyrights and abuse reports form
Time is now: 18th January 2021 - 05:23:35