Welcome Guest ( Log In | Register )

> Trenchwar - Criminal Organizations (2020), Thrash Metal
post Dec 10 2020, 15:09:36
Post #1

Правь статус, ####!111
**************
Group: Металариец
Posts: 25,773
Releases: 18452
From: Г.Харьков
On Forums: 8 years 11 months
Thanks: 364221 time(s)
Unknown


(IMG:https://metalarea.org/images/audiocovers/2020_Dec/acov_tid344922_thumb.jpg)

*Artist: Trenchwar
*Album: Criminal Organizations
*Year: 2020
*Genre: Thrash Metal
*Country: Turkey (IMG:https://metalarea.org/forum/style_images/flags/Turkey.png)
*Format: mp3@CBR320kbps
*Size: 94MB

Tracklist:
01. Kill 08:44
02. The Godfathers 06:34
03. Criminal Organizations 06:53
04. Rape of the Week 05:04
05. Mass Mind Rape 04:23
06. Thrash Not Trash 03:17
07. Trenchwar 05:57
******************************
Total playing time: 40:52




Extended info
Harun Altun (Vocals)
Deniz Durdağ (Rhythm Guitars)
Dağhan Erdoğan (Lead Guitars)
Tolga Otabatmaz (Bass)
Serdar Kara (Drums)


Technical info
(IMG:https://metalarea.org/images/spectrogram/2020_Dec/6f0bfa29f100be722275be3e282c5ee9.png)
Input File: 07 Trenchwar.mp3
Channels : 2
Sample Rate : 44100
Precision : 16-bit
Duration : 00:05:57.37 = 15760193 samples = 26803 CDDA sectors
File Size : 14.3M
Bit Rate : 320k
Sample Encoding: MPEG audio (layer I, II or III)
Comments :
Title=Trenchwar
Artist=Trenchwar
Album=Criminal Organizations
Tracknumber=07/07
Year=2020-20-20
Discnumber=1/1



Register


Go to the top of the page
  Insert nick Quick quote
+Quote Post
 
Start new topic
Replies (1 - 1)
post Dec 13 2020, 11:56:36
Post #2

hearer & reader
**************
Group: Металариец
Posts: 9,619
Releases: 170
From: Moscow
On Forums: 13 years 7 months
Thanks: 10626 time(s)
Russian Federation


https://music.yandex.ru/album/12629446
Go to the top of the page
  Insert nick Quick quote
+Quote Post

Reply to this topicStart new topic
1 User(s) are reading this topic (1 Guests and 0 Anonymous Users)
0 Members:

 



- Lo-Fi Version Support form
Copyrights and abuse reports form
Time is now: 18th April 2021 - 01:17:47