Welcome Guest ( Log In | Register )

> Releases Upload / Добавление релизов

Добавить релиз тут / Click here to add release
Рекомендованные обменники / Recommended file shares

> Ishvara - Shape Of A Void To Come (2020), Avant-Garde Black Metal
post Dec 11 2020, 00:35:45
Post #1

Правь статус, ####!111
**************
Group: Металариец
Posts: 24,573
Releases: 17403
From: Г.Харьков
On Forums: 8 years 8 months
Thanks: 335623 time(s)
Unknown


(IMG:https://metalarea.org/images/audiocovers/2020_Dec/acov_tid344944_thumb.jpg)

*Artist: Ishvara
*Album: Shape Of A Void To Come
*Year: 2020
*Genre: Avant-Garde Black Metal
*Country: Italy (IMG:https://metalarea.org/forum/style_images/flags/Italy.png)
*Format: mp3@CBR320kbps
*Size: 129MB

Tracklist:
01. Vajrabhairava 00:56
02. Hollow Heart 05:59
03. Relativity of the Absolute 06:56
04. Shape of a Void to Come 06:20
05. Mark of the Plague 06:55
06. Dharmayama 07:28
07. Continuum Vastitaes 06:07
08. Cosmic Frequencies Diffused 06:40
09. Song of Fire 07:44
******************************
Total playing time: 55:05




Extended info


Technical info
(IMG:https://metalarea.org/images/spectrogram/2020_Dec/98d668f9f87c8f1ece431d224c7f878a.png)
Input File: 07 Continuum Vastitaes.mp3
Channels : 2
Sample Rate : 44100
Precision : 16-bit
Duration : 00:06:07.93 = 16225625 samples = 27594.6 CDDA sectors
File Size : 15.0M
Bit Rate : 327k
Sample Encoding: MPEG audio (layer I, II or III)
Comments :
Title=Continuum Vastitaes
Artist=Ishvara
Album=Shape of a Void to Come
Tracknumber=7/9
Year=2020-20-20
Discnumber=1/1



Register


Go to the top of the page
  Insert nick Quick quote
+Quote Post
 
Start new topic
Replies (1 - 2)
post Dec 12 2020, 11:11:29
Post #2

Пять Литров
*****
Group: Металариец
Posts: 428
Releases: 20
From: Санкт-Петербург
On Forums: 14 years 8 months
Thanks: 1416 time(s)
Russian Federation


Ничего такая вещица, послушать вполне можно, довольно часто на какой-то недо-Aborym похоже.
Go to the top of the page
  Insert nick Quick quote
+Quote Post
post Dec 13 2020, 11:05:44
Post #3

0%Tolerance
******
Group: Металариец
Posts: 612
Releases: 0
On Forums: 8 years 4 months
Thanks: 107 time(s)
Unknown


Индуистский прогдэтхоблэк какой-то. Еле дослушал.
Go to the top of the page
  Insert nick Quick quote
+Quote Post

Reply to this topicStart new topic
1 User(s) are reading this topic (1 Guests and 0 Anonymous Users)
0 Members:

 



- Lo-Fi Version Support form
Copyrights and abuse reports form
Time is now: 18th January 2021 - 12:07:52