Welcome Guest ( Log In | Register )

> Heiinghund - Urðrs Brønn (2020), Atmospheric Black Metal (D4)
post Dec 12 2020, 20:19:03
Post #1

Правь статус, ####!111
**************
Group: Металариец
Posts: 3,878
Releases: 3540
From: Одесса
On Forums: 12 years 10 months
Thanks: 37857 time(s)
Ukraine


(IMG:http://metalarea.org/images/audiocovers/2020_Dec/acov_tid345022_thumb.jpg)

*Artist: Heiinghund
*Album: Urðrs Brønn
*Year: 2020
*Genre: Atmospheric Black Metal
*Country: Norway (IMG:http://metalarea.org/forum/style_images/flags/Norway.png)
*Format: mp3@CBR320kbps
*Size: 164MB

Tracklist:
1. Nornene 04:06
2. Fafnir 03:00
3. Jarngygri 02:46
4. Urðr 06:32
5. Balder og Odin 03:15
6. Dvergfylgje 03:13
7. Verdande 04:29
8. Hatets kalde klinge 03:13
9. Kraakevisa 02:08
10. Fjellets klagesang 02:48
11. Hatets borg 03:43
12. Eg ska drepa deg 04:25
13. Blod ild sverd 04:03
14. Skuld saga 04:49
15. Vinterland 05:43
16. Født av alder 03:12
17. Runuheita 02:08
18. Fryktens skapning 02:40
19. Innerst i sinnet/Outro 02:58
******************************
Total playing time: 1:09:11



Technical info
(IMG:http://metalarea.org/images/spectrogram/2020_Dec/1a5bddd2e365b7ee2835891c1e66b4a1.png)
Input File: 12 - eg ska drepa deg.mp3
Channels : 2
Sample Rate : 44100
Precision : 16-bit
Duration : 00:04:25.40 = 11703920 samples = 19904.6 CDDA sectors
File Size : 10.7M
Bit Rate : 321k
Sample Encoding: MPEG audio (layer I, II or III)
Comments :
Title=eg ska drepa deg
Artist=Heiinghund
Album=Urðrs Brønn
Tracknumber=12
Year=2020
Genre=Atmospheric Black Metal



Register


Go to the top of the page
  Insert nick Quick quote
+Quote Post
 
Start new topic
Replies (1 - 2)
post Dec 13 2020, 08:45:18
Post #2

Три Литра
***
Group: Завсегдатай
Posts: 225
Releases: 0
From: Russia
On Forums: 14 years 5 months
Thanks: 46 time(s)
Russian Federation


С чего вдруг Atmospheric? Raw как raw.
Go to the top of the page
  Insert nick Quick quote
+Quote Post
post Dec 13 2020, 11:47:44
Post #3

Два Литра
**
Group: Завсегдатай
Posts: 165
Releases: 0
On Forums: 11 years 4 months
Thanks: 41 time(s)
Russian Federation


Наверное потому, что клавиши есть.
Go to the top of the page
  Insert nick Quick quote
+Quote Post

Reply to this topicStart new topic
1 User(s) are reading this topic (1 Guests and 0 Anonymous Users)
0 Members:

 



- Lo-Fi Version Support form
Copyrights and abuse reports form
Time is now: 14th April 2021 - 15:12:07