Welcome Guest ( Log In | Register )

> Deceased - The Void Of No Return [ep] (2020), Thrash Metal/Crossover (D)
post Dec 13 2020, 21:50:59
Post #1

Правь статус, ####!111
**************
Group: Металариец
Posts: 25,711
Releases: 18394
From: Г.Харьков
On Forums: 8 years 11 months
Thanks: 362817 time(s)
Unknown


(IMG:http://metalarea.org/images/audiocovers/2020_Dec/acov_tid345056_thumb.jpg)

*Artist: Deceased
*Album: The Void Of No Return [ep]
*Year: 2020
*Genre: Thrash Metal/Crossover
*Country: Singapore (IMG:http://metalarea.org/forum/style_images/flags/Singapore.png)
*Format: mp3@CBR320kbps
*Size: 33MB

Tracklist:
1. Intro 00:47
2. The Void of No Return 02:44
3. Resurrection 03:04
4. Forever 03:34
5. Stomp (Bonus Track) 02:46
******************************
Total playing time: 12:55




Technical info
(IMG:http://metalarea.org/images/spectrogram/2020_Dec/ab6077514f68e9fc31c86d15437b6912.png)
Input File: 04 Forever.mp3
Channels : 2
Sample Rate : 44100
Precision : 16-bit
Duration : 00:03:34.19 = 9445735 samples = 16064.2 CDDA sectors
File Size : 9.18M
Bit Rate : 343k
Sample Encoding: MPEG audio (layer I, II or III)
Comments :
Title=Forever
Artist=Deceased
Album=The Void of No Return
Tracknumber=4/5
Year=2020-20-20
Genre=Metal
Discnumber=1/1



Register


Go to the top of the page
  Insert nick Quick quote
+Quote Post
 
Start new topic
Replies (1 - 3)
post Dec 14 2020, 11:19:49
Post #2

Туфлєблек то є файно
**************
Group: Металариец
Posts: 2,353
Releases: 0
From: Україна
On Forums: 12 years 3 months
Thanks: 1829 time(s)
Ukraine


Хорошечная штука, давайте альбом (IMG:style_emoticons/default/metaler.gif) (IMG:style_emoticons/default/9.gif) (IMG:style_emoticons/default/pray.gif)


Go to the top of the page
  Insert nick Quick quote
+Quote Post
post Dec 14 2020, 20:19:56
Post #3

MDM-Thrash Metal
**************
Group: Металариец
Posts: 10,274
Releases: 1215
From: Одесса
On Forums: 13 years 8 months
Thanks: 29776 time(s)
Ukraine


Плюсую, очень неплохая ЕПишка. Драйвово, олд скульно, с чувством, с толком!


Go to the top of the page
  Insert nick Quick quote
+Quote Post
post Dec 19 2020, 04:06:28
Post #4

Два Литра
**
Group: Завсегдатай
Posts: 176
Releases: 0
From: Isla de Margarita, Venezuela
On Forums: 2 years 3 months
Thanks: 18 time(s)
Venezuela


Very Good!!!! Brutal!!!! (IMG:style_emoticons/default/metaler.gif)

Excelent Thrash!!!!!
Go to the top of the page
  Insert nick Quick quote
+Quote Post

Reply to this topicStart new topic
2 User(s) are reading this topic (2 Guests and 0 Anonymous Users)
0 Members:

 



- Lo-Fi Version Support form
Copyrights and abuse reports form
Time is now: 14th April 2021 - 15:21:25