Welcome Guest ( Log In | Register )

> Lochrian Poem - Bystanders (2020), Melodic Doom Metal
post Dec 20 2020, 15:41:44
Post #1

Правь статус, ####!111
**************
Group: Металариец
Posts: 25,788
Releases: 18466
From: Г.Харьков
On Forums: 8 years 11 months
Thanks: 364665 time(s)
Unknown


(IMG:http://metalarea.org/images/audiocovers/2020_Dec/acov_tid345264_thumb.jpg)

*Artist: Lochrian Poem
*Album: Bystanders
*Year: 2020
*Genre: Melodic Doom Metal
*Country: Romania (IMG:http://metalarea.org/forum/style_images/flags/Romania.png)
*Format: mp3@CBR320kbps
*Size: 160MB

Tracklist:
01. Disclosure
02. Is it ever enough?
03. Disconnect
04. Absence
05. Stand By
06. Babel
07. Third Path
08. Garden of Silence
09. Forgetful Chestfeeder
10. Север
11. One Million Folds
12. Closure
******************************
Total playing time: 1:09:59




Extended info


Technical info
(IMG:http://metalarea.org/images/spectrogram/2020_Dec/6e5365274b5b46cc8a85fe2f66584625.png)
Input File: 09 - Forgetful Chestfeeder.mp3
Channels : 2
Sample Rate : 44100
Precision : 16-bit
Duration : 00:05:16.13 = 13941465 samples = 23710 CDDA sectors
File Size : 12.7M
Bit Rate : 321k
Sample Encoding: MPEG audio (layer I, II or III)
Comments :
Title=Forgetful Chestfeeder
Artist=Lochrian Poem
Album=Bystanders
Tracknumber=9
Year=2020
Discnumber=1/1



Register


Go to the top of the page
  Insert nick Quick quote
+Quote Post
 
Start new topic
Replies (1 - 2)
post Dec 21 2020, 09:50:52
Post #2

####!111
**************
Group: Металариец
Posts: 4,354
Releases: 129
From: The Mountain Of DOOM
On Forums: 13 years 6 months
Thanks: 6068 time(s)
Russian Federation


Повеяло Сатурнусом и российской дум-сценой 90-х - начала 00-х, худшими их чертами: жиденький звук гитар, полушёпот, перебор с клавишными и отсутствие чувства меры в целом. Есть и более модные вкрапления по типу Enshine, почти "металкор" и чуть ли не фри-джаз. Так-то хорошие мелодии есть, но плохой продакшн и композиционный сумбур не дают ими насладиться.


Go to the top of the page
  Insert nick Quick quote
+Quote Post
post Jan 12 2021, 16:49:11
Post #3

Ъ
**************
Group: Металариец
Posts: 10,566
Releases: 9
On Forums: 12 years 3 months
Thanks: 2161 time(s)
Sweden


Третьесорт.
Go to the top of the page
  Insert nick Quick quote
+Quote Post

Reply to this topicStart new topic
2 User(s) are reading this topic (2 Guests and 0 Anonymous Users)
0 Members:

 



- Lo-Fi Version Support form
Copyrights and abuse reports form
Time is now: 19th April 2021 - 09:22:25