Welcome Guest ( Log In | Register )

> 

Здесь релизы с живыми прямыми ссылками на lossless

> Maquahuitl - Con Su Pistola En La Mano [ep] (2021), Black Metal (D)
post Dec 26 2020, 18:02:59
Post #1

Правь статус, ####!111
**************
Group: Металариец
Posts: 3,895
Releases: 3555
From: Одесса
On Forums: 12 years 10 months
Thanks: 38000 time(s)
Ukraine


(IMG:http://metalarea.org/images/audiocovers/2020_Dec/acov_tid345452_thumb.jpg)

*Artist: Maquahuitl
*Album: Con Su Pistola En La Mano [ep]
*Year: 2021
*Genre: Black Metal
*Country: United States (IMG:http://metalarea.org/forum/style_images/flags/United%20States.png)
*Format: mp3@CBR320kbps
*Size: 46MB

Tracklist:
1. El Corrido de Gregorio Cortez 05:56
2. Ahantoc 06:56
3. Pistolero 06:17
******************************
Total playing time: 19:09



Technical info
(IMG:http://metalarea.org/images/spectrogram/2020_Dec/0a2b2499fc026ec6297c9afbad26b7f7.png)
Input File: 02. Ahantoc.mp3
Channels : 2
Sample Rate : 44100
Precision : 16-bit
Duration : 00:06:57.07 = 18392831 samples = 31280.3 CDDA sectors
File Size : 16.7M
Bit Rate : 320k
Sample Encoding: MPEG audio (layer I, II or III)
Comments :
Title=Ahantoc
Artist=Maquahuitl
Album=Con Su Pistola En La Mano (EP)
Tracknumber=2
Year=2021
Genre=138



Register


Go to the top of the page
  Insert nick Quick quote
+Quote Post
 
Start new topic
Replies (1 - 9)
post Dec 27 2020, 19:02:39
Post #2

0%Tolerance
*********
Group: Металариец
Posts: 917
Releases: 0
On Forums: 8 years 7 months
Thanks: 163 time(s)
Unknown


Нацик латинос нарулил годный миник.
Go to the top of the page
  Insert nick Quick quote
+Quote Post
post Dec 27 2020, 19:09:57
Post #3

Семь Литров
*******
Group: Металариец
Posts: 733
Releases: 1
On Forums: 1 year 10 months
Thanks: 535 time(s)
Russian Federation


Добротно. Блэк с мотивами в духе саундтреков к вестернам, прямо в духе Эдди Волана. Воинственно и мелодично. Так и тянет после подобного ограбить поезд, а потом праздновать победу, обжираясь буррито и текилой.


Thanks:
(1) judaz,
Go to the top of the page
  Insert nick Quick quote
+Quote Post
post Dec 28 2020, 06:10:11
Post #4

градусы контрастов
**************
Group: Металариец
Posts: 4,767
Releases: 0
On Forums: 5 years 2 months
Thanks: 3062 time(s)
Unknown


ЦИТАТА(HviteGuden @ 27th December 2020 - 23:09:57) *
Так и тянет после подобного ограбить Деда Мороза, а потом праздновать новый год, обжираясь буррито и текилой.

с первых аккордов вдруг откуда не возьмись появилась лошадь, схватила меня и мы ускакали (IMG:style_emoticons/default/crazy.gif)
Go to the top of the page
  Insert nick Quick quote
+Quote Post
post Feb 7 2021, 06:42:38
Post #5

Два Литра
**
Group: Завсегдатай
Posts: 156
Releases: 0
On Forums: 1 year 6 months
Thanks: 3 time(s)
United States


Someone reup? All links dead
Go to the top of the page
  Insert nick Quick quote
+Quote Post
post Feb 7 2021, 07:19:08
Post #6

кручу наждак
**************
Group: Металариец
Posts: 4,873
Releases: 103
From: Самара
On Forums: 10 years 11 months
Thanks: 3882 time(s)
Russian Federation


Талантливый каброн. Никогда еще не слышал такого гармоничного сочетания блэчины, мексиканских мотивов и атмосферы спагетти-вестернов. Авось и полноформат нарулит в похожем стиле.
Go to the top of the page
  Insert nick Quick quote
+Quote Post
post Feb 7 2021, 16:02:34
Post #7

:3
**************
Group: Металариец
Posts: 4,679
Releases: 103
From: Novosibirsk
On Forums: 13 years 6 months
Thanks: 3793 time(s)
Russian Federation


Полностью поддерживаю предыдущих ораторов. Необычный, но в то же время весьма гармоничный релиз (IMG:style_emoticons/default/pray.gif)
Go to the top of the page
  Insert nick Quick quote
+Quote Post
post Feb 7 2021, 16:11:19
Post #8
BAN
Banned till
Apr 30 2021, 14:41:14



Дешевое пойло под лапки лягушачьи.
Go to the top of the page
  Insert nick Quick quote
+Quote Post
post Feb 17 2021, 07:59:37    Сейчас играет: Etoile Filante - Magnum Opus Caelestis
Post #9

antithesis
**************
Group: Металариец
Posts: 3,316
Releases: 34
From: VRN
On Forums: 10 years 10 months
Thanks: 2119 time(s)
Russian Federation


reup, pls
Go to the top of the page
  Insert nick Quick quote
+Quote Post
post Feb 17 2021, 09:31:54
Post #10

Group Icon
Group: S-moderation team
Posts: 20,347
Releases: 1441
From: Zagreb
On Forums: 10 years 1 month
Thanks: 93295 time(s)
Croatia


Register
Register


Thanks:
Go to the top of the page
  Insert nick Quick quote
+Quote Post

Reply to this topicStart new topic
2 User(s) are reading this topic (2 Guests and 0 Anonymous Users)
0 Members:

 



- Lo-Fi Version Support form
Copyrights and abuse reports form
Time is now: 19th April 2021 - 10:01:25