Welcome Guest ( Log In | Register )

> Gastrorrexis - Paradise Of The Flies (2020), Brutal Death Metal (D)
post Dec 30 2020, 17:21:08
Post #1

Правь статус, ####!111
**************
Group: Металариец
Posts: 29,275
Releases: 21491
From: Г.Харьков
On Forums: 10 years 1 week
Thanks: 443625 time(s)
Unknown


(IMG:http://metalarea.org/images/audiocovers/2020_Dec/acov_tid345568_thumb.jpg)

*Artist: Gastrorrexis
*Album: Paradise Of The Flies
*Year: 2020
*Genre: Brutal Death Metal
*Country: Ecuador (IMG:http://metalarea.org/forum/style_images/flags/Ecuador.png)
*Format: mp3@CBR320kbps
*Size: 67MB

Tracklist:
01. Intro
02. Fertilization of Predatory Flies
03. Absolute Dominance
04. Banish the Human Plague
05. Witness the Horizon of Death
06. Sounds of Violent Executions
07. Abandoned in the Desert
08. Decree of Bestiality
09. Manipulation of the Entrails
10. Outro
******************************
Total playing time: 28:19




Technical info
(IMG:http://metalarea.org/images/spectrogram/2020_Dec/739ff1f17ea075ef7bba1ad1194b125a.png)
Input File: GASTRORREXIS - Paradise Of The Flies - 09 Manipulation Of The Entrails.mp3
Channels : 2
Sample Rate : 44100
Precision : 16-bit
Duration : 00:03:20.92 = 8860484 samples = 15068.9 CDDA sectors
File Size : 8.25M
Bit Rate : 329k
Sample Encoding: MPEG audio (layer I, II or III)
Comments :
Title=Manipulation Of The Entrails
Artist=GASTRORREXIS
Album=Paradise Of The Flies
Tracknumber=9
Year=2020



Register


Go to the top of the page
  Insert nick Quick quote
+Quote Post
 
Start new topic
Replies (1 - 6)
post Dec 31 2020, 06:48:25
Post #2

Crush! Kill! Destroy!
**************
Group: Металариец
Posts: 5,732
Releases: 15
From: Kaliningrad
On Forums: 14 years 6 months
Thanks: 5428 time(s)
Russian Federation


Или я слушаю мало сферического брутала в вакууме, или альбом вполне себе годный. Твердая четверочка.


Thanks:
Go to the top of the page
  Insert nick Quick quote
+Quote Post
post Dec 31 2020, 08:00:15
Post #3

Group: Подсевший
Posts: 35
Releases: 0
On Forums: 2 years 1 month
Thanks: 19 time(s)
Poland


Какой же это брутал? Мягонькое звучание, без глубоких хлестких басов, без яростной гитарной атаки с дисторшеном, ну это же хард-рок с примесью глэм-метала, это же очевидно!
О майн гад, какую же хрень сейчас выпускают под тэгом "брутал дэт"!!!
Go to the top of the page
  Insert nick Quick quote
+Quote Post
post Dec 31 2020, 11:39:46
Post #4

Neformal
********
Group: Металариец
Posts: 894
Releases: 26
From: Mакеевка
On Forums: 15 years 3 months
Thanks: 526 time(s)
Unknown


ЦИТАТА
альбом вполне себе годный

согласен, довольно приличный звук да и музыка (наконецто без слема, о боги). все прикольно звучит)


Thanks:
Go to the top of the page
  Insert nick Quick quote
+Quote Post
post Dec 31 2020, 13:16:57
Post #5

Мегаманьяк
***********
Group: Металариец
Posts: 1,615
Releases: 1
From: APATIN, SERBIA, АПАТИН, СЕРБИЯ
On Forums: 14 years 6 months
Thanks: 4588 time(s)



Flac

Register


Go to the top of the page
  Insert nick Quick quote
+Quote Post
post Dec 31 2020, 13:52:19
Post #6

Full-of-Hate
**************
Group: Металариец
Posts: 4,876
Releases: 0
From: Moscow
On Forums: 12 years 10 months
Thanks: 5372 time(s)
Russian Federation


Gastrorrexis достаточно продуктивные парни, 10 лет стажа, 5 полноформатных альбомов. И флаг страны, в которой никому из российских слушателей побывать скорее всего не суждено. Но культурный обмен все же происходит - через вот такую музыку.

Сабж - очень недурственный Brutal Death как вещь в себе. Разумеется, они не претендуют на новое слово в жанре, но который альбом подряд больше пары раз слушать не тянет. С бруталом как с процессом воспроизведения "жесткого" музыкального контента у них все в порядке, но какого-то класса, чтобы возвращаться к их записям вновь и вновь, я не заметил ни десять лет назад, ни сейчас. Хотя этот альбом все равно выглядит гораздо увереннее предшественников. А еще он пипец как напоминает Prostitute Disfigurement времен "Deeds of Derangement". В общем, пусть рубят. Выше натянутой четверки за старания оценить не готов.
Go to the top of the page
  Insert nick Quick quote
+Quote Post
post Jan 19 2021, 12:16:29
Post #7

добрый мизантроп
**************
Group: Металариец
Posts: 2,946
Releases: 1
From: Менск
On Forums: 11 years 6 months
Thanks: 1309 time(s)
Madagascar


(IMG:style_emoticons/default/t2017.gif) (IMG:style_emoticons/default/27.gif) (IMG:style_emoticons/default/20.gif)
Go to the top of the page
  Insert nick Quick quote
+Quote Post

Reply to this topicStart new topic
2 User(s) are reading this topic (2 Guests and 0 Anonymous Users)
0 Members:

 



- Lo-Fi Version Support form
Copyrights and abuse reports form
Time is now: 22nd May 2022 - 14:53:42