Welcome Guest ( Log In | Register )

> Releases Upload / Добавление релизов

Добавить релиз тут / Click here to add release
Рекомендованные обменники / Recommended file shares

 
Reply to this topicStart new topic
> Thrashsquatch! - The Return Of The Living Shred [ep] (2021), Thrash Metal/Crossover
post Jan 1 2021, 18:04:53
Post #1

Правь статус, ####!111
**************
Group: Металариец
Posts: 24,570
Releases: 17398
From: Г.Харьков
On Forums: 8 years 8 months
Thanks: 335467 time(s)
Unknown


(IMG:http://metalarea.org/images/audiocovers/2021_Jan/acov_tid345651_thumb.jpg)

*Artist: Thrashsquatch!
*Album: The Return Of The Living Shred [ep]
*Year: 2021
*Genre: Thrash Metal/Crossover
*Country: United Kingdom (IMG:http://metalarea.org/forum/style_images/flags/United%20Kingdom.png)
*Format: mp3@CBR320kbps
*Size: 45MB

Tracklist:
01. Human Compost 03:48
02. Head Transplant 00:59
03. Destroyer of Worlds 03:33
04. Hostile Force 03:36
05. Shreds of Sanity 02:47
06. Skeleton Men 03:00
******************************
Total playing time: 17:43




Extended info
Guitars: Bruce Lightning and Stanley Knife
Bass: Carlos Fandango
Drums: Clive Bonecrusher
Vocals: Nigel Condor


Technical info
(IMG:http://metalarea.org/images/spectrogram/2021_Jan/0f0ee1f03433f48992e8121377699fab.png)
Input File: 04 Hostile Force.mp3
Channels : 2
Sample Rate : 44100
Precision : 16-bit
Duration : 00:03:35.99 = 9525247 samples = 16199.4 CDDA sectors
File Size : 9.39M
Bit Rate : 348k
Sample Encoding: MPEG audio (layer I, II or III)
Comments :
Title=Hostile Force
Artist=Thrashsquatch!
Album=The Return of the Living Shred
Tracknumber=4/6
Year=2021-21-20
Genre=Metal
Discnumber=1/1



Register


Go to the top of the page
  Insert nick Quick quote
+Quote Post

Reply to this topicStart new topic
1 User(s) are reading this topic (1 Guests and 0 Anonymous Users)
0 Members:

 



- Lo-Fi Version Support form
Copyrights and abuse reports form
Time is now: 17th January 2021 - 17:04:24