Welcome Guest ( Log In | Register )

> Somnvs Mortis - El Advenimiento De Las Pesadillas Perpetuas [ep] (2019), Black Metal
post Jan 3 2021, 19:52:48
Post #1

Правь статус, ####!111
**************
Group: Металариец
Posts: 30,377
Releases: 22365
From: Г.Харьков
On Forums: 10 years 4 months
Thanks: 467152 time(s)
Unknown


(IMG:http://metalarea.org/images/audiocovers/2021_Jan/acov_tid345713_thumb.jpg)

*Artist: Somnvs Mortis
*Album: El Advenimiento De Las Pesadillas Perpetuas [ep]
*Year: 2019
*Genre: Black Metal
*Country: Chile (IMG:http://metalarea.org/forum/style_images/flags/Chile.png)
*Format: mp3@CBR320kbps
*Size: 49MB

Tracklist:
1. Intro: Cayendo en el sueño mortuorio 02:08
2. Somnvs Mortis 08:34
3. Donde yace lo inconcebible 06:10
4. Sombrías visiones oníricas 03:17
******************************
Total playing time: 20:09




Extended info
C.M. Bass (2019-present)
See also: Exanimatvm, Meconio, ex-Pusher, ex-Inner Dystopia (live)
Hermes Drums (2019-present)
See also: Infernal Doom, Inner Dystopia, ex-Extirped, ex-Frozen
F.G. Guitars (2019-present)
See also: Bukon, Unabomber, ex-Dursmilodon
E.V. Guitars (lead) (2019-present)
See also: Exanimatvm
J.V. Vocals (2019-present)


Technical info
(IMG:http://metalarea.org/images/spectrogram/2021_Jan/78c29959b6812c684f9976df6a3f23d0.png)
Input File: 03 Donde Yace lo Inconcebible.mp3
Channels : 2
Sample Rate : 44100
Precision : 16-bit
Duration : 00:06:10.10 = 16321278 samples = 27757.3 CDDA sectors
File Size : 15.4M
Bit Rate : 332k
Sample Encoding: MPEG audio (layer I, II or III)
Comments :
Title=Donde Yace lo Inconcebible
Artist=Somnvs Mortis
Album=El Advenimiento de las Pesadillas Perpetuas
Tracknumber=3/4
Year=2019-19-20
Discnumber=1/1



Register


Go to the top of the page
  Insert nick Quick quote
+Quote Post
 
Start new topic
Replies (1 - 2)
post Jan 26 2021, 17:15:54
Post #2

While Waiting the Worms
***********
Group: Металариец
Posts: 1,526
Releases: 0
On Forums: 8 years 9 months
Thanks: 2345 time(s)
Unknown


Замечательный миник!
Настораживает меня лишь факт того, что участники Somnvs Mortis в своих основных коллективах играют всё что угодно, но не Black Metal.
Go to the top of the page
  Insert nick Quick quote
+Quote Post
post Oct 27 2021, 22:31:49
Post #3

aggresive exumator!
**********
Group: Металариец
Posts: 1,451
Releases: 0
On Forums: 11 years 1 week
Thanks: 49 time(s)
Unknown


reupload please


Thanks:
Go to the top of the page
  Insert nick Quick quote
+Quote Post

Reply to this topicStart new topic
2 User(s) are reading this topic (2 Guests and 0 Anonymous Users)
0 Members:

 



- Lo-Fi Version Support form
Copyrights and abuse reports form
Time is now: 3rd October 2022 - 02:16:23