Welcome Guest ( Log In | Register )

> Anti-Flesh - Incarnation Of Plagues (2018), Black Metal
post Jan 11 2021, 14:10:18
Post #1

Правь статус, ####!111
**************
Group: Металариец
Posts: 3,777
Releases: 58
From: MoscoW
On Forums: 14 years 2 months
Thanks: 3299 time(s)
Russian Federation


(IMG:https://metalarea.org/images/audiocovers/2021_Jan/acov_tid345984_thumb.jpg)

*Artist: Anti-Flesh
*Album: Incarnation Of Plagues
*Year: 2018
*Genre: Black Metal
*Country: Greece (IMG:https://metalarea.org/forum/style_images/flags/Greece.png)
*Format: mp3@CBR128kbps (IMG:https://metalarea.org/images/bit_low.gif)
*Size: 37MB

Tracklist:
01. Beneath The Void I 02:23
02. The Cold Touch Of Emptyness 06:26
03. Flesh Eater 05:47
04. Death And Blood Soil 07:15
05. Chains Upon Your Neck 05:28
06. Beneath The Void II 03:04
07. Our Spirit Prisoned By The Flesh 04:37
08. Incarnation Of Plagues 05:22
******************************
Total playing time: 40:22



Technical info
(IMG:https://metalarea.org/images/spectrogram/2021_Jan/0a3e3995d807feba1d6d777d84677c06.png)
Input File: 01. Beneath The Void I.mp3
Channels : 2
Sample Rate : 44100
Precision : 16-bit
Duration : 00:02:23.15 = 6312739 samples = 10736 CDDA sectors
File Size : 2.29M
Bit Rate : 128k
Sample Encoding: MPEG audio (layer I, II or III)
Comments :
Title=Beneath The Void I
Artist=Anti-Flesh
Album=Incarnation Of Plagues
Tracknumber=1
Year=2018



Register


Go to the top of the page
  Insert nick Quick quote
+Quote Post
 
Start new topic
Replies (1 - 1)
post Jan 12 2021, 16:07:04
Post #2

Правь статус, ####!111
**************
Group: Металариец
Posts: 3,777
Releases: 58
From: MoscoW
On Forums: 14 years 2 months
Thanks: 3299 time(s)
Russian Federation




Thanks:
Go to the top of the page
  Insert nick Quick quote
+Quote Post

Reply to this topicStart new topic
1 User(s) are reading this topic (1 Guests and 0 Anonymous Users)
0 Members:

 



- Lo-Fi Version Support form
Copyrights and abuse reports form
Time is now: 2nd March 2021 - 23:43:08