Welcome Guest ( Log In | Register )

> Releases Upload / Добавление релизов

Добавить релиз тут / Click here to add release
Рекомендованные обменники / Recommended file shares

> Redimoni - On The Brink Of Existence [ep] (2021), Thrash Metal (D5)
post Jan 11 2021, 16:14:14
Post #1

Правь статус, ####!111
**************
Group: Металариец
Posts: 24,668
Releases: 17474
From: Г.Харьков
On Forums: 8 years 8 months
Thanks: 338327 time(s)
Unknown


(IMG:http://metalarea.org/images/audiocovers/2021_Jan/acov_tid345988_thumb.jpg)

*Artist: Redimoni
*Album: On The Brink Of Existence [ep]
*Year: 2021
*Genre: Thrash Metal
*Country: Spain (IMG:http://metalarea.org/forum/style_images/flags/Spain.png)
*Format: mp3@CBR320kbps
*Size: 46MB

Tracklist:
1. As the Soul Leaves the Body 03:59
2. Death Shall Come to Us All 03:41
3. Der Tag der Rache 03:53
4. Ancient Buried Secrets 03:01
5. Axes 03:15
******************************
Total playing time: 17:49




Extended info
Thundering DrumBasher Summoner of the Eternal Legions of Chaos Drums (2000-present)
See also: ex-Growing Cells
Thy Mighty Apocalyptic Hermit Foreteller of Doom Guitars, Vocals (2000-present)
See also: ex-Growing Cells
The Atomic Puppeteer Ruler of the Everlasting Fate of Mankind Guitars (2011-present)
Supreme Herald of the Judgement Day and the End of Existance Bass (2014-present)


Technical info
(IMG:http://metalarea.org/images/spectrogram/2021_Jan/ab3367905ec3a26b5c32326b93f37e88.png)
Input File: 03 Der Tag Der Rache.mp3
Channels : 2
Sample Rate : 44100
Precision : 16-bit
Duration : 00:03:53.08 = 10278696 samples = 17480.8 CDDA sectors
File Size : 10.3M
Bit Rate : 352k
Sample Encoding: MPEG audio (layer I, II or III)
Comments :
Title=Der Tag Der Rache
Artist=Redimoni
Album=On the Brink of Existence
Tracknumber=3/5
Year=2021-21-20
Genre=Metal
Discnumber=1/1



Register


Go to the top of the page
  Insert nick Quick quote
+Quote Post
 
Start new topic
Replies (1 - 1)
post Jan 12 2021, 20:02:48    Сейчас играет: Viimeinen Kolonna 2002 Aistien Juhlaa
Post #2

Два Литра
**
Group: Завсегдатай
Posts: 145
Releases: 0
On Forums: 12 years 10 months
Thanks: 51 time(s)
Russian Federation


Чудненько. (IMG:style_emoticons/default/smile1.gif)
Go to the top of the page
  Insert nick Quick quote
+Quote Post

Reply to this topicStart new topic
1 User(s) are reading this topic (1 Guests and 0 Anonymous Users)
0 Members:

 



- Lo-Fi Version Support form
Copyrights and abuse reports form
Time is now: 25th January 2021 - 06:15:20