Welcome Guest ( Log In | Register )

> Releases Upload / Добавление релизов

Добавить релиз тут / Click here to add release
Рекомендованные обменники / Recommended file shares

 
Reply to this topicStart new topic
> Declared Dead - Retirement Plan B (2021), Black/Death/Thrash Metal (D9)
post Jan 11 2021, 17:19:30
Post #1

Правь статус, ####!111
**************
Group: Металариец
Posts: 3,558
Releases: 3229
From: Одесса
On Forums: 12 years 7 months
Thanks: 33753 time(s)
Ukraine


(IMG:http://metalarea.org/images/audiocovers/2021_Jan/acov_tid345990_thumb.jpg)

*Artist: Declared Dead
*Album: Retirement Plan B
*Year: 2021
*Genre: Black/Death/Thrash Metal
*Country: Belgium (IMG:http://metalarea.org/forum/style_images/flags/Belgium.png)
*Format: mp3@CBR320kbps
*Size: 101MB

Tracklist:
1. Where Darkness Meets Shadows 06:01 instrumental
2. Dragging the Corpse 04:22
3. Fit for the Undertaker 03:58
4. Strewn Before Vultures 04:32
5. Guardian of the Other World 03:03
6. Soulless Solace 03:41
7. Arbiter of the Abattoir 05:56
8. Grinding the Wind 02:19
9. Night Falls Fast 06:05
******************************
Total playing time: 39:57



Extended info
Line - up:

Anders Milovovich - Vocals, Guitars
Deiter Cox - Bass, Vocals
Mikhel Van Zaal - Drums, Keyboards
Dimitri Nagel III - Guitars

(IMG:https://www.metal-archives.com/images/3/5/4/0/3540410802_photo.jpg?3319)


Technical info
(IMG:http://metalarea.org/images/spectrogram/2021_Jan/0824723726b584ed606e672bc221902b.png)
Input File: 02. Dragging the Corpse.mp3
Channels : 2
Sample Rate : 44100
Precision : 16-bit
Duration : 00:04:22.08 = 11557640 samples = 19655.9 CDDA sectors
File Size : 10.5M
Bit Rate : 320k
Sample Encoding: MPEG audio (layer I, II or III)
Comments :
Title=Dragging the Corpse
Artist=Declared Dead
Album=Retirement Plan B
Tracknumber=2
Year=2021
Genre=Black/Death/Thrash Metal



Register


Go to the top of the page
  Insert nick Quick quote
+Quote Post

Reply to this topicStart new topic
1 User(s) are reading this topic (1 Guests and 0 Anonymous Users)
0 Members:

 



- Lo-Fi Version Support form
Copyrights and abuse reports form
Time is now: 18th January 2021 - 21:17:01