Welcome Guest ( Log In | Register )

 
Reply to this topicStart new topic
> Gravekeepers - Gravekeepers [ep] (2020), Thrash Metal
post Jan 11 2021, 17:22:55
Post #1

Правь статус, ####!111
**************
Group: Металариец
Posts: 24,668
Releases: 17474
From: Г.Харьков
On Forums: 8 years 8 months
Thanks: 338320 time(s)
Unknown


(IMG:http://metalarea.org/images/audiocovers/2021_Jan/acov_tid345991_thumb.jpg)

*Artist: Gravekeepers
*Album: Gravekeepers [ep]
*Year: 2020
*Genre: Thrash Metal
*Country: Brazil (IMG:http://metalarea.org/forum/style_images/flags/Brazil.png)
*Format: mp3@CBR320kbps
*Size: 63MB

Tracklist:
1. Power King 05:13
2. Blood River 03:54
3. Fuga 02:36
4. Monster of Revenge 05:54
5. Emperor's Arival 03:49
6. Gravekeeper 05:17
******************************
Total playing time: 26:43




Extended info
Lucas Queiroz Bass
Jonell Pereira Drums
Diego Fiorot Guitars
Andrey Scream Vocals
See also: True Massacre


Technical info
(IMG:http://metalarea.org/images/spectrogram/2021_Jan/c6fb9320cfa46e7d57c51f5af67762f0.png)
Input File: 04 Monster of Revenge.mp3
Channels : 2
Sample Rate : 44100
Precision : 16-bit
Duration : 00:05:54.66 = 15640374 samples = 26599.3 CDDA sectors
File Size : 14.5M
Bit Rate : 328k
Sample Encoding: MPEG audio (layer I, II or III)
Comments :
Title=Monster of Revenge
Artist=Gravekeepers
Album=Gravekeepers
Tracknumber=4
Year=2020-20-20
Discnumber=1/1



Register


Go to the top of the page
  Insert nick Quick quote
+Quote Post

Reply to this topicStart new topic
1 User(s) are reading this topic (1 Guests and 0 Anonymous Users)
0 Members:

 



- Lo-Fi Version Support form
Copyrights and abuse reports form
Time is now: 25th January 2021 - 04:44:35