Welcome Guest ( Log In | Register )

> Releases Upload / Добавление релизов

Добавить релиз тут / Click here to add release
Рекомендованные обменники / Recommended file shares

> Bukon - Hatred [ep] (2019), Old School Thrash Metal
post Jan 11 2021, 17:36:29
Post #1

Правь статус, ####!111
**************
Group: Металариец
Posts: 24,579
Releases: 17410
From: Г.Харьков
On Forums: 8 years 8 months
Thanks: 335745 time(s)
Unknown


(IMG:http://metalarea.org/images/audiocovers/2021_Jan/acov_tid345992_thumb.jpg)

*Artist: Bukon
*Album: Hatred [ep]
*Year: 2019
*Genre: Old School Thrash Metal
*Country: Chile (IMG:http://metalarea.org/forum/style_images/flags/Chile.png)
*Format: mp3@CBR320kbps
*Size: 53MB

Tracklist:
1. Wicked Blade 04:55
2. Decrepit Existence 05:13
3. No Color 03:32
4. Rotten Minds 05:16
5. Morbid Stalker 04:01
******************************
Total playing time: 22:57




Extended info
Adriano Vera Bass, Vocals (backing)
Felipe Mardones Drums
Francisco Goya Guitars (lead)
Bruno Andrade Vocals
Giancarlo Garín Guitars (rhythm)


Technical info
(IMG:http://metalarea.org/images/spectrogram/2021_Jan/56d18cd22f9e2b5f2cf78b8d35dbf072.png)
Input File: Bukon - Hatred - 04 Rotten Minds.mp3
Channels : 2
Sample Rate : 44100
Precision : 16-bit
Duration : 00:05:16.65 = 13964133 samples = 23748.5 CDDA sectors
File Size : 12.8M
Bit Rate : 323k
Sample Encoding: MPEG audio (layer I, II or III)
Comments :
Title=Rotten Minds
Artist=Bukon
Album=Hatred
Tracknumber=4
Year=2019



Register


Go to the top of the page
  Insert nick Quick quote
+Quote Post
 
Start new topic
Replies (1 - 1)
post Jan 12 2021, 21:09:04
Post #2

Четыре Литра
****
Group: Металариец
Posts: 364
Releases: 0
From: Kyiv
On Forums: 8 years 9 months
Thanks: 149 time(s)
Ukraine


Гнусный вокал
Go to the top of the page
  Insert nick Quick quote
+Quote Post

Reply to this topicStart new topic
1 User(s) are reading this topic (1 Guests and 0 Anonymous Users)
0 Members:

 



- Lo-Fi Version Support form
Copyrights and abuse reports form
Time is now: 18th January 2021 - 21:30:01