Welcome Guest ( Log In | Register )

> Releases Upload / Добавление релизов

Добавить релиз тут / Click here to add release
Рекомендованные обменники / Recommended file shares

 
Reply to this topicStart new topic
> Gravecrawler - Chapter I: Abominations [ep] (2021), Black/Death Metal
post Jan 11 2021, 17:53:46
Post #1

Правь статус, ####!111
**************
Group: Металариец
Posts: 24,579
Releases: 17410
From: Г.Харьков
On Forums: 8 years 8 months
Thanks: 335738 time(s)
Unknown


(IMG:http://metalarea.org/images/audiocovers/2021_Jan/acov_tid345993_thumb.jpg)

*Artist: Gravecrawler
*Album: Chapter I: Abominations [ep]
*Year: 2021
*Genre: Black/Death Metal
*Country: Sweden (IMG:http://metalarea.org/forum/style_images/flags/Sweden.png)
*Format: mp3@CBR320kbps
*Size: 35MB

Tracklist:
1. Putrid Incarnation 03:17
2. Embers in the Bog 03:03
3. Procreate, Contaminate, Annihilate 03:42
4. Beast of the Abysmal Sea 04:26
******************************
Total playing time: 14:28




Extended info
Sebastian Olsson Drums (2019-present)
See also: ex-Exit
Jesper Lindgren Guitars, Vocals (2019-present)
Billy Lundevall Vocals (2019-present)
Roni Iivonen Bass (2020-present)
See also: ex-In Reverence


Technical info
(IMG:http://metalarea.org/images/spectrogram/2021_Jan/463ad0fc1d3f4a292d69b97c0c213b0b.png)
Input File: 04 Beast of the Abysmal Sea.mp3
Channels : 2
Sample Rate : 44100
Precision : 16-bit
Duration : 00:04:26.96 = 11772936 samples = 20022 CDDA sectors
File Size : 11.1M
Bit Rate : 332k
Sample Encoding: MPEG audio (layer I, II or III)
Comments :
Title=Beast of the Abysmal Sea
Artist=Gravecrawler
Album=Chapter I: Abominations
Tracknumber=4/4
Year=2021-21-20
Genre=Metal
Discnumber=1/1



Register


Go to the top of the page
  Insert nick Quick quote
+Quote Post

Reply to this topicStart new topic
1 User(s) are reading this topic (1 Guests and 0 Anonymous Users)
0 Members:

 



- Lo-Fi Version Support form
Copyrights and abuse reports form
Time is now: 18th January 2021 - 20:33:35