Welcome Guest ( Log In | Register )

> Releases Upload / Добавление релизов

Добавить релиз тут / Click here to add release
Рекомендованные обменники / Recommended file shares

 
Reply to this topicStart new topic
> Hëllstrike - Spill The Blood [demo] (2020), Black/Thrash Metal
post Jan 11 2021, 18:31:24
Post #1

Маньяк
**********
Group: Металариец
Posts: 1,300
Releases: 465
From: Саранск
On Forums: 9 years 8 months
Thanks: 4201 time(s)
Russian Federation


(IMG:https://metalarea.org/images/audiocovers/2021_Jan/acov_tid345995_thumb.jpg)

*Artist: Hëllstrike
*Album: Spill The Blood [demo]
*Year: 2020
*Genre: Black/Thrash Metal
*Country: Romania (IMG:https://metalarea.org/forum/style_images/flags/Romania.png)
*Format: mp3@CBR320kbps
*Size: 27MB

Tracklist:
1. Metal Gods 02:38
2. Master of Hell 03:30
3. Vomitor 03:36
4. Spill the Blood 02:01
******************************
Total playing time: 11:45



Technical info
(IMG:https://metalarea.org/images/spectrogram/2021_Jan/541e20552c926700a67a307b77adffda.png)
Input File: 2.Master of Hell.mp3
Channels : 2
Sample Rate : 44100
Precision : 16-bit
Duration : 00:03:30.55 = 9285255 samples = 15791.2 CDDA sectors
File Size : 8.45M
Bit Rate : 321k
Sample Encoding: MPEG audio (layer I, II or III)
Comments :
Title=Master of Hell
Artist=Hëllstrike
Album=Spill the Blood (Demo)
Tracknumber=2
Year=2020
Genre=Black/Thrash Metal



Register


Go to the top of the page
  Insert nick Quick quote
+Quote Post

Reply to this topicStart new topic
1 User(s) are reading this topic (1 Guests and 0 Anonymous Users)
0 Members:

 



- Lo-Fi Version Support form
Copyrights and abuse reports form
Time is now: 18th January 2021 - 20:45:24