Welcome Guest ( Log In | Register )

> Releases Upload / Добавление релизов

Добавить релиз тут / Click here to add release
Рекомендованные обменники / Recommended file shares

> 景湖白 - 清醒的人格分裂 (2020), Atmospheric Black Metal/Ambient
post Jan 11 2021, 19:01:36
Post #1

Правь статус, ####!111
**************
Group: Металариец
Posts: 24,668
Releases: 17474
From: Г.Харьков
On Forums: 8 years 8 months
Thanks: 338323 time(s)
Unknown


(IMG:http://metalarea.org/images/audiocovers/2021_Jan/acov_tid345997_thumb.jpg)

*Artist: 景湖白
*Album: 清醒的人格分裂
*Year: 2020
*Genre: Atmospheric Black Metal/Ambient
*Country: China (IMG:http://metalarea.org/forum/style_images/flags/China.png)
*Format: mp3@CBR320kbps
*Size: 130MB

Tracklist:
1. 情感缺失 07:22
2. 她滿身疤痕 10:06
3. 怪癖 10:25
4. 它既是...又是 09:29
5. 水仙花有一雙眼睛 08:36
6. 迷失的美好 09:49
******************************
Total playing time: 55:47



Extended info
Luo Jing Everything (2013-present)


Technical info
(IMG:http://metalarea.org/images/spectrogram/2021_Jan/62e6e403cfd0876379a59773162ec5b6.png)
Input File: 06 迷失的美好.mp3
Channels : 2
Sample Rate : 44100
Precision : 16-bit
Duration : 00:09:49.54 = 25998582 samples = 44215.3 CDDA sectors
File Size : 24.0M
Bit Rate : 325k
Sample Encoding: MPEG audio (layer I, II or III)
Comments :
Title=迷失的美好
Artist=景湖白
Album=清醒的人格分裂
Tracknumber=6/6
Year=2020-20-20
Discnumber=1/1



Register


Go to the top of the page
  Insert nick Quick quote
+Quote Post
 
Start new topic
Replies (1 - 3)
post Jan 12 2021, 12:41:22
Post #2

градусы контрастов
**************
Group: Металариец
Posts: 4,464
Releases: 0
On Forums: 4 years 11 months
Thanks: 2916 time(s)
Unknown


от названия бэнда и альбома прям аж дух захватывает.
а от музыки - нет.
Go to the top of the page
  Insert nick Quick quote
+Quote Post
post Jan 12 2021, 12:41:57
Post #3

Литр
*
Group: Подсевший
Posts: 59
Releases: 17
On Forums: 11 years 6 months
Thanks: 315 time(s)
Ukraine


Чел 7 лет пилил альбом. Интересно.
Go to the top of the page
  Insert nick Quick quote
+Quote Post
post Jan 12 2021, 18:03:18
Post #4

Group: Подсевший
Posts: 32
Releases: 0
On Forums: 1 month 1 hour
Thanks: 20 time(s)
Unknown


Жутко затянутая тягомотина с бурчащим вокалом который к такой музыке точно не подходит. Но автору видней он же тварец (IMG:style_emoticons/default/crazy.gif)
Go to the top of the page
  Insert nick Quick quote
+Quote Post

Reply to this topicStart new topic
1 User(s) are reading this topic (1 Guests and 0 Anonymous Users)
0 Members:

 



- Lo-Fi Version Support form
Copyrights and abuse reports form
Time is now: 25th January 2021 - 05:19:46