Welcome Guest ( Log In | Register )

> Releases Upload / Добавление релизов

Добавить релиз тут / Click here to add release
Рекомендованные обменники / Recommended file shares

 
Reply to this topicStart new topic
> Obscure Relic - Black Sorcery Devotion (2021), Black Metal
post Jan 11 2021, 19:03:14
Post #1

Правь статус, ####!616
**************
Group: Металариец
Posts: 5,582
Releases: 4106
From: 55°35’N 38°08’E
On Forums: 12 years 6 months
Thanks: 77194 time(s)
Unknown


(IMG:https://metalarea.org/images/audiocovers/2021_Jan/acov_tid345998_thumb.jpg)

*Artist: Obscure Relic
*Album: Black Sorcery Devotion
*Year: 2021
*Genre: Black Metal
*Country: Brazil (IMG:https://metalarea.org/forum/style_images/flags/Brazil.png)
*Format: mp3@CBR320kbps
*Size: 96MB

Tracklist:
1.Earth (Intro) 01:08
2.A Knight Called Disease 03:54
3.Vultures Fly Near 03:07
4.Shields of Goathorns (Hail the Hordes) 04:49
5.In the Temples of the Dark Light 03:53
6.My Red Angel in the Pentagram 04:34
7.To the King of Seven Crossroads 03:18
8.Satan, Victorious! 03:44
9.Ride the Winged Serpent 02:56
10.The Seals of Necrorevelations 04:41
11.The Last Storm of Winter 04:04
12.Fire (Outro) 01:05
******************************
Total playing time: 41:13




Technical info
(IMG:https://metalarea.org/images/spectrogram/2021_Jan/4a8d8bac28e043a40e53b1d5b4192699.png)
Input File: 02 A Knight Called Disease.mp3
Channels : 2
Sample Rate : 44100
Precision : 16-bit
Duration : 00:03:54.10 = 10323766 samples = 17557.4 CDDA sectors
File Size : 9.50M
Bit Rate : 325k
Sample Encoding: MPEG audio (layer I, II or III)
Comments :
Title=A Knight Called Disease
Artist=Obscure Relic
Album=Black Sorcery Devotion
Tracknumber=2
Year=2021
Genre=Black Metal



Register


Go to the top of the page
  Insert nick Quick quote
+Quote Post

Reply to this topicStart new topic
1 User(s) are reading this topic (1 Guests and 0 Anonymous Users)
0 Members:

 



- Lo-Fi Version Support form
Copyrights and abuse reports form
Time is now: 25th January 2021 - 04:22:54