Welcome Guest ( Log In | Register )

> Releases Upload / Добавление релизов

Добавить релиз тут / Click here to add release
Рекомендованные обменники / Recommended file shares

> Czarnobog & Ostvind - Sigils Of War​.​.​. [split] (2021), Black Metal | Black Metal (D)
post Jan 11 2021, 19:51:56
Post #1

Правь статус, ####!616
**************
Group: Металариец
Posts: 5,561
Releases: 4088
From: 55°35’N 38°08’E
On Forums: 12 years 6 months
Thanks: 76728 time(s)
Unknown


(IMG:https://metalarea.org/images/audiocovers/2021_Jan/acov_tid346000_thumb.jpg)

*Artist: Czarnobog & Ostvind
*Album: Sigils Of War​.​.​. [split]
*Year: 2021
*Genre: Black Metal | Black Metal
*Country: Germany (IMG:https://metalarea.org/forum/style_images/flags/Germany.png) | Germany (IMG:https://metalarea.org/forum/style_images/flags/Germany.png)
*Format: mp3@CBR320kbps
*Size: 75MB

Tracklist:
Czarnobog:
1.Woods of the Owl Temple 06:07
2.Where Ravens Fly 06:26
3.Sigils of War 05:15
Ostvind:
4.V.R.A.Z. 03:58
5.Die Erkenntnis 04:38
6.Pesthauch 05:20
******************************
Total playing time: 31:44



Technical info
(IMG:https://metalarea.org/images/spectrogram/2021_Jan/546357f9f6bb8c806ca9707b5bf5c2f0.png)
Input File: 02 Czarnobog - Where Ravens Fly.mp3
Channels : 2
Sample Rate : 44100
Precision : 16-bit
Duration : 00:06:26.66 = 17051794 samples = 28999.6 CDDA sectors
File Size : 15.7M
Bit Rate : 324k
Sample Encoding: MPEG audio (layer I, II or III)
Comments :
Title=Where Ravens Fly
Artist=Czarnobog
Album=Sigils of War​.​.​.
Tracknumber=2
Year=2021
Genre=Black Metal



Register


Go to the top of the page
  Insert nick Quick quote
+Quote Post
 
Start new topic
Replies (1 - 2)
post Jan 12 2021, 17:55:00
Post #2

Group: Подсевший
Posts: 32
Releases: 0
On Forums: 3 weeks 3 days
Thanks: 19 time(s)
Unknown


Этот сплит приглянулся из за наличия на нём Czarnobog. Чего ожидал то и получил. Czarnobog играет среднетемповый Блэк без прикрас и с закосов под старину. А Ostvind проходит как то фоном и не более. Sigils Of War​.​.​. особой ценности не представляет потому что сейчас таких сплитов/альбомов/демо и т.п. превеликое множество. Всего просто не переслушаешь и тем более не купишь.
Go to the top of the page
  Insert nick Quick quote
+Quote Post
post Jan 13 2021, 12:31:40
Post #3

градусы контрастов
**************
Group: Металариец
Posts: 4,427
Releases: 0
On Forums: 4 years 11 months
Thanks: 2912 time(s)
Unknown


оба участника пытаются напустить атмосферы без какой либо попытки сыграть на манер "йа играю лучше чем обезьяна на лопате и дубине"
несуразица.
Go to the top of the page
  Insert nick Quick quote
+Quote Post

Reply to this topicStart new topic
1 User(s) are reading this topic (1 Guests and 0 Anonymous Users)
0 Members:

 



- Lo-Fi Version Support form
Copyrights and abuse reports form
Time is now: 18th January 2021 - 21:11:48