Welcome Guest ( Log In | Register )

> И неформату есть предел.

Рэп/хип-хоп/шансон/поп удаляются. Для них есть свои порталы.

 
Reply to this topicStart new topic
> Ethereal Sea - Forgotten Memories Of Tomorrow (2020), Psychedelic Rock
post Jan 11 2021, 19:59:12
Post #1

Правь статус, ####!111
**************
Group: Металариец
Posts: 3,560
Releases: 3231
From: Одесса
On Forums: 12 years 7 months
Thanks: 33813 time(s)
Ukraine


(IMG:http://metalarea.org/images/audiocovers/2021_Jan/acov_tid346001_thumb.jpg)

*Artist: Ethereal Sea
*Album: Forgotten Memories Of Tomorrow
*Year: 2020
*Genre: Psychedelic Rock
*Country: United States (IMG:http://metalarea.org/forum/style_images/flags/United%20States.png)
*Format: mp3@CBR320kbps
*Size: 90MB

Tracklist:
1. Wild 04:59
2. Mind Island 05:04
3. Close Your Eyes 05:13
4. High on You 03:06
5. Bad Side of Town 06:00
6. River 03:41
7. Ocean 04:53
8. Junk Monkey 04:30
******************************
Total playing time: 37:26



Extended info
Line - up:
Richard Boone - Drums
Walter Hansen - Keyboards
Cole Johnson - Bass
Dustin Bartee - Vocals, Guitars

Guest/Session:
Derek Neiman - Vocals (backing) (track 3)

(IMG:https://www.metal-archives.com/images/3/5/4/0/3540464574_photo.jpg?5023)


Technical info
(IMG:http://metalarea.org/images/spectrogram/2021_Jan/10cd8a0a8344a75db6b4575e09d1543f.png)
Input File: 03. Close Your Eyes.mp3
Channels : 2
Sample Rate : 44100
Precision : 16-bit
Duration : 00:05:13.36 = 13819132 samples = 23501.9 CDDA sectors
File Size : 12.6M
Bit Rate : 322k
Sample Encoding: MPEG audio (layer I, II or III)
Comments :
Title=Close Your Eyes
Artist=Ethereal Sea
Album=Forgotten Memories Of Tomorrow
Tracknumber=3
Year=2020
Genre=93



Register


Go to the top of the page
  Insert nick Quick quote
+Quote Post

Reply to this topicStart new topic
2 User(s) are reading this topic (2 Guests and 0 Anonymous Users)
0 Members:

 



- Lo-Fi Version Support form
Copyrights and abuse reports form
Time is now: 22nd January 2021 - 00:34:33