Welcome Guest ( Log In | Register )

> Releases Upload / Добавление релизов

Добавить релиз тут / Click here to add release
Рекомендованные обменники / Recommended file shares

> Praise The Sun - The Art Of Agony [ep] (2020), Melodic Death Metal
post Jan 11 2021, 20:45:24
Post #1

MDM-Thrash Metal
**************
Group: Металариец
Posts: 10,101
Releases: 1132
From: Одесса
On Forums: 13 years 5 months
Thanks: 28061 time(s)
Ukraine


(IMG:http://metalarea.org/images/audiocovers/2021_Jan/acov_tid346003_thumb.jpg)

*Artist: Praise The Sun
*Album: The Art Of Agony [ep]
*Year: 2020
*Genre: Melodic Death Metal
*Country: Poland (IMG:http://metalarea.org/forum/style_images/flags/Poland.png)
*Format: mp3@CBR320kbps
*Size: 43MB

Tracklist:
1. The Art of Agony 03:05
2. Anna 03:59
3. Praise the Sun 03:56
4. Alive 03:32
5. Mistake Daughter 03:30
******************************
Total playing time: 18:02



(IMG:http://metalarea.org/images/youtube.png)

Extended info
Konrad Romanowski Bass
See also: ex-Pravia
Wojciech Mroziński Drums
Mateusz Zarczuk Guitars
Daniel Kowalski Guitars
Marcelina Janik Vocals


Technical info
(IMG:http://metalarea.org/images/spectrogram/2021_Jan/075268b0e8db6c378c116fe1c88486d1.png)
Input File: 02 - Anna.mp3
Channels : 2
Sample Rate : 44100
Precision : 16-bit
Duration : 00:03:59.25 = 10550705 samples = 17943.4 CDDA sectors
File Size : 9.79M
Bit Rate : 327k
Sample Encoding: MPEG audio (layer I, II or III)
Comments :
Title=Anna
Artist=Praise The Sun
Album=The Art of Agony
Tracknumber=2
Year=2020
Discnumber=1/1



Register


Go to the top of the page
  Insert nick Quick quote
+Quote Post
 
Start new topic
Replies (1 - 1)
post Jan 13 2021, 21:36:14
Post #2

Это просто место… где все подошло к концу.
**************
Group: Металариец
Posts: 6,145
Releases: 0
From: Страны Мамонтов
On Forums: 13 years 11 months
Thanks: 2394 time(s)
Antarctica


Вот же развелось никчемных групп с дамским вокалом (IMG:style_emoticons/default/22.gif)
Go to the top of the page
  Insert nick Quick quote
+Quote Post

Reply to this topicStart new topic
1 User(s) are reading this topic (1 Guests and 0 Anonymous Users)
0 Members:

 



- Lo-Fi Version Support form
Copyrights and abuse reports form
Time is now: 25th January 2021 - 04:49:53