Welcome Guest ( Log In | Register )

> Draugurz - Elbenopfer (2019), Black Metal (D)
post Jan 12 2021, 00:11:29
Post #1

Malum dominus omnium
**
Group: Завсегдатай
Posts: 180
Releases: 109
On Forums: 11 months 1 day
Thanks: 2171 time(s)
Vatican City


(IMG:https://metalarea.org/images/audiocovers/2021_Jan/acov_tid346004_thumb.jpg)

*Artist: Draugurz
*Album: Elbenopfer
*Year: 2019
*Genre: Black Metal
*Country: Brazil (IMG:https://metalarea.org/forum/style_images/flags/Brazil.png)
*Format: mp3@CBR320kbps
*Size: 91MB

Tracklist:
1. Intro: Beschwörung 01:05
2. Erd- und bluthaften Kräfte 08:35
3. Unter dem Auge 05:52
4. Der kommende Sturm 04:39
5. Ein Ruf aus der Vergangenheit 08:20
6. Die Tore der Ewigkeit durchschreiten 05:51
7. Pest 05:12
******************************
Total playing time: 39:34

(IMG:https://metalarea.org/images/youtube.png)
Metal Archives

Technical info
(IMG:https://metalarea.org/images/spectrogram/2021_Jan/dafd33d21a6d4f090a719924fc3a25c0.png)
Input File: Draugurz -1 Intro_ Beschwörung.mp3
Channels : 2
Sample Rate : 44100
Precision : 16-bit
Duration : 00:01:04.81 = 2858121 samples = 4860.75 CDDA sectors
File Size : 2.59M
Bit Rate : 320k
Sample Encoding: MPEG audio (layer I, II or III)
Comments :
Title=Intro: Beschwörung
Album=Elbenopfer
Tracknumber=1
Year=2019
Genre=Black Metal



Register


Go to the top of the page
  Insert nick Quick quote
+Quote Post
 
Start new topic
Replies (1 - 1)
post Jan 13 2021, 21:39:48
Post #2

ВЕЛИКИЙ УРАВНИТЕЛЬ
******
Group: Металариец
Posts: 565
Releases: 0
From: Тверь
On Forums: 6 years 6 months
Thanks: 365 time(s)
Unknown


Культовые депрессивные лесники.

Меланхолика она же толика
Амбиента сестра роу-готика.

Интересно. (IMG:style_emoticons/default/true_black.gif)


Thanks:
Go to the top of the page
  Insert nick Quick quote
+Quote Post

Reply to this topicStart new topic
1 User(s) are reading this topic (1 Guests and 0 Anonymous Users)
0 Members:

 



- Lo-Fi Version Support form
Copyrights and abuse reports form
Time is now: 25th January 2021 - 06:05:15