Welcome Guest ( Log In | Register )

> Releases Upload / Добавление релизов

Добавить релиз тут / Click here to add release
Рекомендованные обменники / Recommended file shares

> Heretic Ritual - War - Desecration - Genocide/Passages Of Infinite Hatred (2020), Blackened Death Metal
post Jan 12 2021, 02:08:37
Post #1

Правь статус, ####!111
**************
Group: Металариец
Posts: 24,579
Releases: 17410
From: Г.Харьков
On Forums: 8 years 8 months
Thanks: 335739 time(s)
Unknown


(IMG:http://metalarea.org/images/audiocovers/2021_Jan/acov_tid346005_thumb.jpg)

*Artist: Heretic Ritual
*Album: War - Desecration - Genocide/Passages Of Infinite Hatred
*Year: 2020
*Genre: Blackened Death Metal
*Country: Mexico (IMG:http://metalarea.org/forum/style_images/flags/Mexico.png)
*Format: mp3@CBR320kbps
*Size: 67MB

Tracklist:
1. Infinite Hatred 04:04
2. Disciples of Fire 02:12
3. Black Perverted Abomination 02:43
4. Lord of Sekhet Aaru 02:27
5. Macabre Magic Adoration 04:13
6. Summoning Genocide 03:05
7. Into the Nightside of the Dead 03:05
8. Rat Krusher Kommando 03:20
9. Hammer of Satan (Archgoat cover) 02:16
******************************
Total playing time: 27:25




Extended info
Gothmog Drums
Kulto Macabro Vocals, Bass
Bestial Profaner Guitars, Vocals


Technical info
(IMG:http://metalarea.org/images/spectrogram/2021_Jan/e982b6b94e279eb5502a56acb510afd5.png)
Input File: 05. Macabre Magic Adoration.mp3
Channels : 2
Sample Rate : 44100
Precision : 16-bit
Duration : 00:04:14.01 = 11201621 samples = 19050.4 CDDA sectors
File Size : 10.6M
Bit Rate : 334k
Sample Encoding: MPEG audio (layer I, II or III)
Comments :
Title=Macabre Magic Adoration
Artist=Heretic Ritual
Album=War-Desecration-Genocide-Passages of Infinite Hatred (320)
Tracknumber=05
Year=2020
Genre=Metal



Register


Go to the top of the page
  Insert nick Quick quote
+Quote Post
 
Start new topic
Replies (1 - 2)
post Jan 13 2021, 11:47:22
Post #2

Group: Подсевший
Posts: 47
Releases: 0
On Forums: 10 years 6 months
Thanks: 33 time(s)
Unknown


Really good stuff! Thanks!
Go to the top of the page
  Insert nick Quick quote
+Quote Post
post Jan 14 2021, 12:49:03
Post #3

Восемь Литров
********
Group: Металариец
Posts: 825
Releases: 1
From: APATIN, SERBIA, АПАТИН, СЕРБИЯ
On Forums: 13 years 2 months
Thanks: 1630 time(s)



Flac

Register


Thanks:
Go to the top of the page
  Insert nick Quick quote
+Quote Post

Reply to this topicStart new topic
1 User(s) are reading this topic (1 Guests and 0 Anonymous Users)
0 Members:

 



- Lo-Fi Version Support form
Copyrights and abuse reports form
Time is now: 18th January 2021 - 20:40:33