Welcome Guest ( Log In | Register )

> Releases Upload / Добавление релизов

Добавить релиз тут / Click here to add release
Рекомендованные обменники / Recommended file shares

> Anthrocide - Dissection Of The Abhorrent [ep] (2020), Technical Death Metal
post Jan 12 2021, 02:32:14
Post #1

Правь статус, ####!111
**************
Group: Металариец
Posts: 24,668
Releases: 17474
From: Г.Харьков
On Forums: 8 years 8 months
Thanks: 338329 time(s)
Unknown


(IMG:http://metalarea.org/images/audiocovers/2021_Jan/acov_tid346006_thumb.jpg)

*Artist: Anthrocide
*Album: Dissection Of The Abhorrent [ep]
*Year: 2020
*Genre: Technical Death Metal
*Country: United States (IMG:http://metalarea.org/forum/style_images/flags/United%20States.png)
*Format: mp3@CBR320kbps
*Size: 42MB

Tracklist:
1. Womanizer 03:37
2. Into the Black Void 04:13
3. Refusal of Life 03:29
4. A.B.S.I. 02:48
5. Dissection of the Abhorrent 03:32
******************************
Total playing time: 17:39




Extended info
Vocals- Austin Rolla
Guitars- Alex Burbridge
Guitars- Brandon Ramirez
Bass- Vince Bingen


Technical info
(IMG:http://metalarea.org/images/spectrogram/2021_Jan/e3ca44ae6f3becf3eb2a46186c10f419.png)
Input File: 03 Refusal of Life.mp3
Channels : 2
Sample Rate : 44100
Precision : 16-bit
Duration : 00:03:29.25 = 9228013 samples = 15693.9 CDDA sectors
File Size : 8.37M
Bit Rate : 320k
Sample Encoding: MPEG audio (layer I, II or III)
Comments :
Title=Refusal of Life
Artist=Anthrocide
Album=Dissection of the Abhorrent
Tracknumber=3/5
Year=2020-20-20
Genre=Metal
Discnumber=1/1



Register


Go to the top of the page
  Insert nick Quick quote
+Quote Post
 
Start new topic
Replies (1 - 1)
post Jan 13 2021, 07:57:52
Post #2

Наливай!
**************
Group: Металариец
Posts: 5,940
Releases: 27
From: Москва-Бибирево
On Forums: 12 years 10 months
Thanks: 3047 time(s)
Russian Federation


Не в качестве придирки, а информации для.... На архивах дата 2021.
Go to the top of the page
  Insert nick Quick quote
+Quote Post

Reply to this topicStart new topic
1 User(s) are reading this topic (1 Guests and 0 Anonymous Users)
0 Members:

 



- Lo-Fi Version Support form
Copyrights and abuse reports form
Time is now: 25th January 2021 - 06:21:02